<?xml version="1.0" standalone="no"?>
<!DOCTYPE svg PUBLIC "-//W3C//DTD SVG 1.1//EN" "http://www.w3.org/Graphics/SVG/1.1/DTD/svg11.dtd" >
<svg>
<metadata>
Created by FontForge 20110222 at Wed Aug  6 14:17:31 2014
 By Orthosie Webhosting
_null_name_substitute_
</metadata>
<defs>
<font id="JaapokkiRegular" horiz-adv-x="600" >
  <font-face 
    font-family="JaapokkiRegular"
    font-weight="400"
    font-stretch="normal"
    units-per-em="1000"
    panose-1="0 0 5 0 0 0 0 0 0 0"
    ascent="800"
    descent="-200"
    x-height="431"
    cap-height="701"
    bbox="-104 -391 1039 1042"
    underline-thickness="50"
    underline-position="-50"
    unicode-range="U+0020-2265"
  />
<missing-glyph horiz-adv-x="250" 
 />
    <glyph glyph-name="f_f.liga" unicode="ff" horiz-adv-x="769" 
d="M542 512v-82h119v-116h-119v-314h-140v314h-150v-314h-140v314h-72v116h72v82q0 110 59 174q56 59 146 59q35 0 71.5 -20.5t59.5 -54.5q6 9 13 16q56 59 146 59q85 0 145 -69l-105 -92q-19 21 -40 21q-12 0 -20 -2t-20 -9.5t-18.5 -28t-6.5 -53.5zM402 430v82q0 29 5 59
q-31 34 -90 34q-12 0 -20 -2t-20 -9.5t-18.5 -28t-6.5 -53.5v-82h150z" />
    <glyph glyph-name="f_f_i.liga" unicode="ffi" horiz-adv-x="800" 
d="M620 431h140v-431h-140v314h-78v-314h-140v314h-150v-314h-140v314h-72v116h72v82q0 110 59 174q56 59 146 59q35 0 71.5 -20.5t59.5 -54.5q6 9 13 16q56 59 146 59q85 0 145 -69l-105 -92q-19 21 -40 21q-12 0 -20 -2t-20 -9.5t-18.5 -28t-6.5 -53.5v-82h78v1zM402 430
v82q0 29 5 59q-31 34 -90 34q-12 0 -20 -2t-20 -9.5t-18.5 -28t-6.5 -53.5v-82h150z" />
    <glyph glyph-name="f_i.liga" unicode="fi" horiz-adv-x="535" 
d="M252 431h238v-431h-131v314h-107v-314h-140v314h-72v117h72v81q0 110 59 174q56 59 146 59q85 0 145 -69l-105 -92q-19 21 -40 21q-12 0 -20 -2t-20 -9.5t-18.5 -28t-6.5 -53.5v-81z" />
    <glyph glyph-name=".notdef" horiz-adv-x="250" 
 />
    <glyph glyph-name=".null" horiz-adv-x="0" 
 />
    <glyph glyph-name="nonmarkingreturn" horiz-adv-x="333" 
 />
    <glyph glyph-name="space" unicode=" " horiz-adv-x="300" 
 />
    <glyph glyph-name="exclam" unicode="!" horiz-adv-x="231" 
d="M53 198h128v546h-128v-546zM50 0h131v131h-131v-131z" />
    <glyph glyph-name="quotedbl" unicode="&#x22;" horiz-adv-x="495" 
d="M71 502h73l62 209h-141zM295 502h73l62 209h-141z" />
    <glyph glyph-name="numbersign" unicode="#" horiz-adv-x="785" 
d="M735 442h-163l-50 -145h164v-93h-196l-71 -209h-98l74 209h-137l-73 -209h-91l74 209h-123v93h156l51 145h-157v93h190l74 210h89l-74 -210h138l74 210h90l-72 -210h131v-93zM428 297l51 145h-137l-51 -145h137z" />
    <glyph glyph-name="dollar" unicode="$" horiz-adv-x="597" 
d="M364 565v-144q86 -34 133 -85q55 -61 55 -137q0 -77 -56 -139q-53 -59 -132 -70v-91h-70v91q-43 4 -82 15q-96 30 -167 106l102 96q61 -66 147 -77v168h-1l-5 1q-67 17 -106 44q-85 56 -90 158q-5 84 51 143q59 62 151 69v89h70v-93q68 -11 152 -66l23 -15l-73 -119
l-25 16q-50 32 -77 40zM294 443v128q-34 -7 -50 -24q-13 -13 -12 -40q1 -43 62 -64zM364 266v-133q24 9 36 30t12 36q0 36 -48 67z" />
    <glyph glyph-name="percent" unicode="%" 
d="M20 -26l68 -35l485 785l-70 35zM159 412q-40 -4 -70 20t-35 65q-4 40 20 69.5t65 34.5q39 5 69.5 -19.5t34.5 -64.5t-20 -70t-64 -35zM155 463q18 2 28.5 16t7.5 33q-5 43 -46 36q-20 -2 -30.5 -13.5t-8.5 -32.5q2 -19 16 -30t33 -9zM453 101q-40 -4 -70 20.5t-35 64.5
q-4 41 20.5 70.5t64.5 33.5q40 5 70 -19.5t34 -64.5t-20.5 -70t-63.5 -35zM448 152q18 2 29 16t9 32q-4 41 -46 38q-20 -2 -31 -14t-9 -32q2 -19 15.5 -30t32.5 -10z" />
    <glyph glyph-name="ampersand" unicode="&#x26;" horiz-adv-x="593" 
d="M431 0l-3 57q-18 -32 -59 -51.5t-79 -19.5q-103 0 -171.5 55.5t-68.5 157.5q0 112 91 179q-59 56 -59 142q0 84 59.5 137.5t146.5 53.5t147 -53t60 -138h-115q0 39 -27.5 57.5t-64.5 18.5t-64 -20.5t-27 -55.5q0 -40 32.5 -67t76 -36.5t95.5 -9.5v-104q-58 0 -137 17
q-34 -13 -56 -28.5t-30.5 -33.5t-10.5 -30t-2 -29q0 -49 33 -75.5t92 -26.5q56 0 97 36.5t41 75.5v60h115v-269h-112z" />
    <glyph glyph-name="quotesingle" unicode="'" horiz-adv-x="121" 
d="M1 502h63l72 209h-131z" />
    <glyph glyph-name="parenleft" unicode="(" horiz-adv-x="315" 
d="M154 774l-2 -4q-53 -97 -80 -208q-27 -112 -27 -240t27 -241q27 -111 80 -208l2 -4l111 37l-3 5q-53 110 -74 200q-9 41 -16 98q-5 57 -5 113q0 55 5 112q7 57 16 98q21 92 74 200l3 5z" />
    <glyph glyph-name="parenright" unicode=")" horiz-adv-x="315" 
d="M161 -131l2 4q53 97 80 208q27 113 27 241t-27 240q-27 111 -80 208l-2 4l-111 -37l3 -5q53 -108 74 -200q9 -41 16 -98q5 -57 5 -112q0 -56 -5 -113q-7 -57 -16 -98q-21 -90 -74 -200l-3 -5z" />
    <glyph glyph-name="asterisk" unicode="*" horiz-adv-x="542" 
d="M482 636l-111 -68l111 -68l-68 -81l-90 55v-107h-106v107l-90 -55l-68 81l111 68l-111 68l68 81l90 -55v137h106v-137l90 55z" />
    <glyph glyph-name="plus" unicode="+" horiz-adv-x="472" 
d="M294 291h133v-116h-133v-133h-116v133h-133v116h133v133h116v-133z" />
    <glyph glyph-name="comma" unicode="," horiz-adv-x="240" 
d="M49 -133h73l104 273l-142 -2z" />
    <glyph glyph-name="hyphen" unicode="-" horiz-adv-x="472" 
d="M65 291v-116h342v116h-342z" />
    <glyph glyph-name="period" unicode="." horiz-adv-x="221" 
d="M45 0h131v131h-131v-131z" />
    <glyph glyph-name="slash" unicode="/" horiz-adv-x="479" 
d="M35 -28l54 -24l345 609l-54 25z" />
    <glyph glyph-name="zero" unicode="0" horiz-adv-x="658" 
d="M329 712q115 0 197 -106.5t82 -256.5q0 -151 -81.5 -257t-197.5 -106t-197.5 106t-81.5 257q0 150 82 256.5t197 106.5zM329 572q-45 0 -86 -52q-23 -29 -38 -73q-15 -47 -15 -98q0 -53 15 -98q13 -42 38 -74q40 -51 86 -51q48 0 86 51q25 32 38 74q15 45 15 98
q0 51 -15 98q-15 44 -38 73q-38 52 -86 52z" />
    <glyph glyph-name="one" unicode="1" horiz-adv-x="460" 
d="M306 141h89v-141h-330v141h100v418h-100v141h241v-559z" />
    <glyph glyph-name="two" unicode="2" horiz-adv-x="604" 
d="M50 0l231 321q-19 5 -36 12q-36 15 -63 42q-27 25 -43 63q-16 40 -16 78q0 37 16 77q15 37 43 63q29 29 63 43q36 15 77 15t77 -15q34 -14 63 -43q28 -26 43 -63q16 -40 16 -77q0 -38 -16 -78q-4 -10 -62 -91t-113 -157l-56 -75h265v-115h-489zM242 523q0 -30 21.5 -51.5
t51.5 -21.5t51 21.5t21 51.5q0 29 -21 50.5t-51 21.5t-51.5 -21.5t-21.5 -50.5z" />
    <glyph glyph-name="three" unicode="3" horiz-adv-x="530" 
d="M170 507h-115q2 41 16 76q17 39 45 67q33 31 67 45q40 17 82 17t82 -17q34 -14 67 -45q28 -28 45 -67q16 -38 16 -81q0 -44 -16 -82q-17 -39 -45 -67q-1 -1 -2.5 -2t-2.5 -2q3 -3 5 -4q29 -30 45 -67q16 -38 16 -82t-16 -82q-16 -37 -45 -67q-30 -29 -67 -45
q-38 -16 -82 -16t-82 16q-37 16 -67 45q-29 30 -45 67q-14 35 -16 76h115q2 -38 29.5 -63.5t65.5 -25.5q40 0 67.5 27.5t27.5 67.5q0 39 -26.5 67.5t-63.5 28.5h-76v115h81q33 0 59 29t26 66q0 39 -27.5 67t-67.5 28q-38 0 -65.5 -26t-29.5 -64z" />
    <glyph glyph-name="four" unicode="4" 
d="M457 292h78v-113h-78v-179h-130v179h-257v129l209 392h178v-408zM327 552l-134 -260h134v260z" />
    <glyph glyph-name="five" unicode="5" horiz-adv-x="599" 
d="M233 586l-31 -119q44 18 93 18q53 0 97 -20q43 -17 79 -53q35 -35 54 -79q19 -45 19 -97q0 -53 -19 -97q-20 -46 -54 -80q-36 -36 -79 -53q-48 -20 -97 -20q-51 0 -97 20q-45 18 -80 53q-32 34 -49 70l95 40q18 -31 49 -49.5t68 -18.5q56 0 95 39.5t39 95.5t-39.5 95
t-94.5 39q-72 0 -112 -60l-114 29l86 362h374v-115h-282z" />
    <glyph glyph-name="six" unicode="6" horiz-adv-x="572" 
d="M439 701l-143 -281q36 -3 72 -17q41 -17 72 -46q33 -32 49 -69q18 -40 18 -85t-18 -84q-17 -40 -49 -69q-32 -31 -72 -47q-45 -17 -89 -17q-46 0 -89 17q-40 16 -73 47q-29 27 -49 69q-18 39 -18 84t18 85l211 413h160zM279 99q38 0 64 29.5t26 72.5t-26 72.5t-64 29.5
t-64.5 -29.5t-26.5 -72.5t26.5 -72.5t64.5 -29.5z" />
    <glyph glyph-name="seven" unicode="7" horiz-adv-x="610" 
d="M65 701h510l-364 -700h-156l298 560h-288v140z" />
    <glyph glyph-name="eight" unicode="8" horiz-adv-x="573" 
d="M450 344q58 -60 58 -145q0 -84 -58 -145q-28 -30 -70 -49q-44 -19 -93 -19q-51 0 -93 19t-70 49q-59 62 -59 145q0 84 59 145q14 14 18 17q-1 1 -2.5 2t-2.5 2q-53 59 -53 140q0 80 53 139q29 32 65 48q43 19 85 19t85 -19q36 -16 65 -48q53 -59 53 -139q0 -81 -53 -140
q-1 -1 -2.5 -2t-2.5 -2q6 -5 18 -17zM287 596q-33 0 -56 -26.5t-23 -64.5t23 -64.5t56 -26.5q32 0 55.5 27t23.5 64t-23.5 64t-55.5 27zM287 101q35 0 60 28.5t25 69.5t-25 70t-60 29t-60 -29t-25 -70t25 -69.5t60 -28.5z" />
    <glyph glyph-name="nine" unicode="9" horiz-adv-x="587" 
d="M133 -11l143 294q-39 3 -72 16q-40 16 -72 47q-33 32 -49 69q-18 41 -18 84q0 45 18 85q16 37 49 69q32 31 72 47q43 17 89 17t89 -17q41 -17 73 -47q31 -29 49 -69q18 -41 18 -85q0 -43 -18 -84l-211 -426h-160zM293 606q-38 0 -65 -30.5t-27 -73.5t27 -73.5t65 -30.5
q39 0 65.5 30t26.5 74q0 43 -26.5 73.5t-65.5 30.5z" />
    <glyph glyph-name="colon" unicode=":" horiz-adv-x="211" 
d="M40 300h131v131h-131v-131zM40 48h131v131h-131v-131z" />
    <glyph glyph-name="semicolon" unicode=";" horiz-adv-x="257" 
d="M81 300h131v131h-131v-131zM46 -101h73l94 273l-132 -2z" />
    <glyph glyph-name="less" unicode="&#x3c;" horiz-adv-x="548" 
d="M55 250l386 -190l51 103l-280 138l281 136l-50 104l-388 -188v-103z" />
    <glyph glyph-name="equal" unicode="=" horiz-adv-x="512" 
d="M45 420v-116h422v116h-422zM45 213v-116h422v116h-422z" />
    <glyph glyph-name="greater" unicode="&#x3e;" horiz-adv-x="548" 
d="M56 163l51 -103l385 190v103l-387 188l-50 -104l281 -136z" />
    <glyph glyph-name="question" unicode="?" 
d="M254 166h115v28q0 35 18 65.5t43.5 55t51 50.5t43.5 65t18 86q0 105 -62 171q-59 57 -155 57q-82 0 -147 -51t-83 -131l112 -24q10 44 44.5 67.5t73.5 23.5q51 0 76.5 -30t25.5 -83q0 -45 -17.5 -73.5t-54.5 -57.5q-39 -31 -56.5 -49t-31.5 -54t-14 -88v-28zM369 0h-114
v114h114v-114z" />
    <glyph glyph-name="at" unicode="@" horiz-adv-x="1104" 
d="M395 -128l-46 -100q-121 56 -195 163q-89 126 -89 280q0 98 38 189q38 88 105 155q68 68 155 104q90 39 189 39q100 0 191 -42q88 -40 154 -109q68 -70 105 -157.5t37 -178.5q0 -101 -45 -179q-39 -68 -102 -94q-57 -26 -119 -9q-51 14 -84 51q-21 24 -31 57
q-64 -54 -148 -54q-95 0 -162 66.5t-67 161.5t67 161.5t162 66.5q84 0 148 -54l10 41h96v-350q0 -15 11 -26t27 -15q8 -2 18 -2q48 0 79 54q30 51 30 124q0 72 -31.5 141.5t-83 121t-121 83t-141.5 31.5q-156 0 -266.5 -110.5t-110.5 -266.5q0 -119 69 -217q57 -83 151 -126
zM605 132q33 34 33 83q0 50 -33 83q-32 34 -79 34q-46 0 -80 -34q-33 -35 -33 -83q0 -47 33 -83q34 -34 80 -34q47 0 79 34z" />
    <glyph glyph-name="A" unicode="A" horiz-adv-x="799" 
d="M609 0l-61 130h-290l-66 -130h-157l357 701h41l331 -701h-155zM330 270h152l-73 156z" />
    <glyph glyph-name="B" unicode="B" horiz-adv-x="553" 
d="M55 700h191q85 0 145 -60t60 -145q0 -63 -36 -115q83 -63 83 -168q0 -88 -62 -150t-150 -62h-231v700zM179 423h61q31 0 56 23t25 58t-25 57t-56 22h-61v-160zM182 119h102q35 0 60.5 24.5t25.5 59.5t-25.5 60t-60.5 25h-102v-169z" />
    <glyph glyph-name="C" unicode="C" horiz-adv-x="725" 
d="M652 635l-90 -104q-50 32 -110.5 34.5t-111 -21.5t-85 -75.5t-34.5 -119.5q0 -71 36 -124t88.5 -76t114.5 -18t110 42l90 -103q-102 -84 -232 -84q-150 0 -256.5 106.5t-106.5 256.5t106.5 256.5t256.5 106.5q125 0 224 -77z" />
    <glyph glyph-name="D" unicode="D" horiz-adv-x="678" 
d="M65 701h198q71 0 136 -27q63 -27 111 -75q50 -50 75 -112q28 -63 28 -136q0 -74 -28 -137q-25 -63 -75 -111q-51 -51 -111 -75q-63 -28 -136 -28h-141v1h-57v700zM205 140h58q87 0 148.5 62t61.5 149t-61.5 148.5t-148.5 61.5h-58v-421z" />
    <glyph glyph-name="E" unicode="E" horiz-adv-x="597" 
d="M532 701v-140h-327v-129h270v-140h-270v-152h324v-140h-464v701h467z" />
    <glyph glyph-name="F" unicode="F" horiz-adv-x="572" 
d="M522 701v-140h-327v-129h270v-140h-270v-292h-140v701h467z" />
    <glyph glyph-name="G" unicode="G" horiz-adv-x="850" 
d="M482 292v140h303v-432h-140v70q-103 -82 -221 -82q-151 2 -255.5 107.5t-103.5 256.5q1 149 107.5 254t255.5 105h3q125 -1 223 -80l-101 -99q-54 37 -123 39h-2q-92 0 -157 -65q-66 -64 -66 -156q-2 -92 63 -158q65 -67 157 -67h3q90 0 156 64q45 43 60 103h-162z" />
    <glyph glyph-name="H" unicode="H" horiz-adv-x="669" 
d="M464 432v268h140v-700h-140v292h-259v-292h-140v700h140v-268h259z" />
    <glyph glyph-name="I" unicode="I" horiz-adv-x="419" 
d="M354 561h-74v-421h74v-140h-289v140h75v421h-75v140h289v-140z" />
    <glyph glyph-name="J" unicode="J" horiz-adv-x="545" 
d="M212 701h283v-470h-1v-1q0 -95 -67 -162.5t-162 -67.5t-162.5 67.5t-67.5 162.5v1h140v-1q0 -37 26 -63q27 -27 64 -27q36 0 63 27q26 26 26 63v1h3v343h-148z" />
    <glyph glyph-name="K" unicode="K" horiz-adv-x="670" 
d="M438 1l-179 320l-54 -55v-265h-140v700h140v-226l205 226h189l-245 -274l251 -426h-167z" />
    <glyph glyph-name="L" unicode="L" horiz-adv-x="531" 
d="M205 701v-561h261v-139h-401v700h140z" />
    <glyph glyph-name="M" unicode="M" horiz-adv-x="812" 
d="M607 0h140v701h-49l-292 -266l-293 266h-48v-701h140v429l201 -183l201 183v-429z" />
    <glyph glyph-name="N" unicode="N" horiz-adv-x="701" 
d="M599 0h37v701h-140v-392l-387 392h-44v-701h140v409z" />
    <glyph glyph-name="O" unicode="O" horiz-adv-x="836" 
d="M418 714q150 0 256.5 -106.5t106.5 -256.5t-106.5 -256.5t-256.5 -106.5t-256.5 106.5t-106.5 256.5t106.5 256.5t256.5 106.5zM418 570q-91 0 -155 -64t-64 -155t64 -155t155 -64t155 64t64 155t-64 155t-155 64z" />
    <glyph glyph-name="P" unicode="P" horiz-adv-x="545" 
d="M63 701h227q87 0 148.5 -62t61.5 -149t-61.5 -148.5t-148.5 -61.5h-87v-280h-140v701zM203 420h87q29 0 49.5 20.5t20.5 49.5t-20.5 50t-49.5 21h-87v-141z" />
    <glyph glyph-name="Q" unicode="Q" horiz-adv-x="836" 
d="M273 -141l73 136q-126 25 -208.5 125t-82.5 231q0 150 106.5 256.5t256.5 106.5t256.5 -106.5t106.5 -256.5q0 -126 -77 -224t-196 -128h158v-140h-393zM195 351q0 -93 65 -158t158 -65t158 65t65 158t-65 158t-158 65t-158 -65t-65 -158z" />
    <glyph glyph-name="R" unicode="R" horiz-adv-x="585" 
d="M545 0h-149l-131 281h-70v-280h-140v701h264q87 0 148.5 -62t61.5 -149q0 -63 -33.5 -114.5t-89.5 -76.5zM319 562h-124v-141h124q29 0 49.5 20.5t20.5 49.5t-20.5 50t-49.5 21z" />
    <glyph glyph-name="S" unicode="S" horiz-adv-x="597" 
d="M293 296l-5 1q-67 17 -106 44q-85 56 -90 158q-5 84 51 143q35 36 81.5 52.5t81.5 16.5q47 0 90 -12t64 -23.5t56 -34.5l23 -15l-73 -119l-25 16q-29 18 -43 26t-38.5 15t-53.5 7q-10 0 -30 -7t-32 -19q-13 -13 -12 -40t21.5 -43.5t68.5 -28.5q8 -2 20 -6
q101 -35 155 -93q55 -61 55 -137q0 -77 -56 -139q-64 -72 -161 -72q-66 0 -123 17q-96 30 -167 106l102 96q74 -79 188 -79q38 0 57.5 25t19.5 46q0 58 -116 98z" />
    <glyph glyph-name="T" unicode="T" horiz-adv-x="629" 
d="M50 701h529v-140h-194v-561h-140v561h-195v140z" />
    <glyph glyph-name="U" unicode="U" horiz-adv-x="643" 
d="M592 259h1q0 -112 -79.5 -191.5t-191.5 -79.5t-191.5 79t-80.5 191v443h140v-442q0 -54 39 -93q38 -38 93 -38q54 0 92 38q37 37 39 92h-1v443h140v-442z" />
    <glyph glyph-name="V" unicode="V" horiz-adv-x="775" 
d="M409 0h-42l-317 701h155l183 -398l182 398h155z" />
    <glyph glyph-name="W" unicode="W" horiz-adv-x="1074" 
d="M854 701h155l-321 -701h-34l-117 257l-118 -257h-34l-320 701h155l187 -394l62 118l-135 276h155l182 -388z" />
    <glyph glyph-name="X" unicode="X" horiz-adv-x="730" 
d="M700 701l-249 -351l249 -350h-172l-163 229l-163 -229h-172l249 350l-249 351h172l163 -230l163 230h172z" />
    <glyph glyph-name="Y" unicode="Y" horiz-adv-x="687" 
d="M487 701h155l-228 -444v-257h-140v257l-229 444h155l144 -264z" />
    <glyph glyph-name="Z" unicode="Z" horiz-adv-x="737" 
d="M55 0h615v130h-366l388 530v41h-574v-131h324l-387 -530v-40z" />
    <glyph glyph-name="bracketleft" unicode="[" horiz-adv-x="392" 
d="M80 -192h232v115h-117v732h117v115h-232v-962z" />
    <glyph glyph-name="bracketright" unicode="]" horiz-adv-x="392" 
d="M80 -77v-115h232v962h-232v-115h117v-732h-117z" />
    <glyph glyph-name="underscore" unicode="_" 
d="M47 116v-116h512v116h-512z" />
    <glyph glyph-name="grave" unicode="`" horiz-adv-x="347" 
d="M35 858l217 -101l60 43l-162 140z" />
    <glyph glyph-name="a" unicode="a" horiz-adv-x="553" 
d="M417 431h96v-431h-106v42q-64 -54 -148 -54q-95 0 -162 66.5t-67 161.5t67 161.5t162 66.5q84 0 148 -54zM354 133q33 35 33 83q0 50 -33 83q-32 34 -79 34q-46 0 -80 -34q-33 -35 -33 -83q0 -47 33 -83q34 -34 80 -34q47 0 79 34z" />
    <glyph glyph-name="b" unicode="b" horiz-adv-x="591" 
d="M168 744v-363q67 65 160 65q94 0 161 -67t67 -162t-66.5 -162t-161.5 -67q-93 0 -160 65v-53h-128v744h128zM391 134q33 35 33 83q0 47 -33 83q-32 34 -79 34q-48 0 -80 -34q-33 -36 -33 -83q0 -48 33 -83q32 -34 80 -34q47 0 79 34z" />
    <glyph glyph-name="c" unicode="c" horiz-adv-x="463" 
d="M423 399l-58 -102q-24 26 -59.5 32t-67.5 -5.5t-55 -40.5t-23 -68q0 -35 21.5 -63.5t52.5 -42t67.5 -9t63.5 31.5l56 -100q-65 -44 -142 -44q-99 0 -169 67t-70 162q0 94 70 161t169 67q79 0 144 -46z" />
    <glyph glyph-name="d" unicode="d" horiz-adv-x="581" 
d="M423 0v51q-67 -65 -160 -65q-95 0 -161.5 67t-66.5 162t67 162t161 67q93 0 160 -65v365h118v-744h-118zM167 215q0 -48 33 -83q32 -34 79 -34q48 0 80 34q33 35 33 83q0 47 -33 83q-32 34 -80 34q-47 0 -79 -34q-33 -36 -33 -83z" />
    <glyph glyph-name="e" unicode="e" horiz-adv-x="528" 
d="M343 131l94 -63q-67 -80 -173 -80q-94 0 -161.5 67t-67.5 162t67 162t162 67t162 -67t67 -162q0 -22 -4 -41h-322q9 -25 25 -42q32 -35 77 -35q42 0 74 32zM165 252h207q-8 28 -27 49q-31 34 -76 34t-77 -34q-17 -20 -27 -49z" />
    <glyph glyph-name="f" unicode="f" horiz-adv-x="502" 
d="M465 686l-91 -79q-19 24 -47 24q-24 0 -40.5 -14t-23.5 -36t-9 -38t-2 -31v-81h129v-117h-129v-314h-120v314h-82v117h82v81q0 107 53 172q55 67 142 67q81 0 138 -65z" />
    <glyph glyph-name="g" unicode="g" horiz-adv-x="538" 
d="M500 387l-73 -24q50 -53 50 -125q0 -81 -62.5 -138t-150.5 -57q-21 0 -46 5q-15 -28 -25 -52q38 5 76 5q118 0 181 -39q68 -43 68 -121q0 -79 -65 -121q-61 -39 -184 -39t-184 39q-65 42 -65 121q0 30 12 57q24 82 99 188q-78 60 -78 152q0 81 62 138t149 57q10 0 30 -2
l206 39v-83zM264 321q-38 0 -64 -25t-26 -58q0 -36 27.5 -59.5t62.5 -23.5q38 0 64.5 25t26.5 58q0 35 -26.5 59t-64.5 24zM269 -205q126 0 126 46q0 22 -34 34t-92 12t-92 -12.5t-34 -33.5q0 -46 126 -46z" />
    <glyph glyph-name="h" unicode="h" horiz-adv-x="565" 
d="M173 744v-340q59 40 129 40q94 0 161 -67t67 -162v-215h-132v215q0 47 -33 83q-32 34 -79 34q-48 0 -80 -34q-33 -36 -33 -83v-215h-133v744h133z" />
    <glyph glyph-name="i" unicode="i" horiz-adv-x="209" 
d="M40 561h129v140h-129v-140zM40 0h129v431h-129v-431z" />
    <glyph glyph-name="j" unicode="j" horiz-adv-x="273" 
d="M97 559h130v140h-130v-140zM15 -313h46q72 0 119.5 55t47.5 140v549h-130v-549q0 -73 -49 -73h-34v-122z" />
    <glyph glyph-name="k" unicode="k" horiz-adv-x="547" 
d="M517 0h-164l-144 175l-29 -30v-145h-140v744h140v-452l128 139h171l-175 -180z" />
    <glyph glyph-name="l" unicode="l" horiz-adv-x="208" 
d="M40 0h128v744h-128v-744z" />
    <glyph glyph-name="m" unicode="m" horiz-adv-x="839" 
d="M155 431l19 -34q53 46 109 46q93 0 152 -85q27 39 67 62t85 23q80 0 137 -67t57 -162v-214h-112v214q0 48 -27 82.5t-69 34.5q-40 0 -66.5 -33.5t-28.5 -76.5v-221h-112v214q0 48 -27.5 82.5t-68.5 34.5q-35 0 -58.5 -23.5t-33.5 -59.5v-248h-120v431h97z" />
    <glyph glyph-name="n" unicode="n" horiz-adv-x="536" 
d="M142 431l20 -38q57 50 123 50q87 0 149 -67t62 -162v-214h-122v214q0 47 -30 82t-74 35t-74 -35t-30 -82v-214h-126v431h102z" />
    <glyph glyph-name="o" unicode="o" horiz-adv-x="537" 
d="M268 444q100 0 169.5 -66.5t69.5 -161.5t-69.5 -161.5t-169.5 -66.5q-99 0 -168.5 66.5t-69.5 161.5t69.5 161.5t168.5 66.5zM349 132q32 35 32 85q0 48 -32 82q-33 35 -80 35q-48 0 -78 -35q-34 -33 -34 -83t34 -84q31 -34 78 -34q46 0 80 34z" />
    <glyph glyph-name="p" unicode="p" horiz-adv-x="595" 
d="M158 431l9 -50q67 65 160 65q94 0 161 -67t67 -162t-66.5 -162t-161.5 -67t-160 65v-366h-117v744h108zM423 217q0 47 -33 82q-32 35 -79 35q-48 0 -80 -35q-33 -35 -33 -82q0 -48 33 -83q32 -34 80 -34q47 0 79 34q33 35 33 83z" />
    <glyph glyph-name="q" unicode="q" horiz-adv-x="591" 
d="M433 -313v366q-65 -65 -159 -65q-95 0 -162 67t-67 162t67 162t162 67q92 0 159 -65l10 50h103v-744h-113zM210 299q-33 -35 -33 -82q0 -48 33 -83q34 -34 80 -34q47 0 79 34q33 33 33 83q0 49 -33 82q-32 35 -79 35t-80 -35z" />
    <glyph glyph-name="r" unicode="r" horiz-adv-x="409" 
d="M137 431l18 -49q46 60 146 60q39 0 73 -12l-49 -111q-54 23 -102 -2.5t-58 -78.5v-238h-125v431h97z" />
    <glyph glyph-name="s" unicode="s" horiz-adv-x="406" 
d="M21 66l80 81q30 -34 68.5 -49t64.5 -7t26 35q0 15 -10.5 25.5t-21 15t-31.5 11.5q-73 23 -107.5 50.5t-34.5 84.5q0 58 45 94.5t108 36.5q53 0 89.5 -11.5t82.5 -39.5l-58 -91q-41 29 -74 39t-51.5 1.5t-21.5 -31.5q-1 -9 2.5 -16t14 -12.5t19.5 -8.5t27.5 -9t28.5 -9
q51 -15 84.5 -48t33.5 -85q0 -53 -47 -94t-112 -41q-127 0 -205 78z" />
    <glyph glyph-name="t" unicode="t" horiz-adv-x="393" 
d="M255 431h100v-117h-100v-314h-127v314h-90v117h90v160h127v-160z" />
    <glyph glyph-name="u" unicode="u" horiz-adv-x="516" 
d="M484 431v-214q0 -94 -68.5 -161.5t-157.5 -67.5t-157.5 67.5t-68.5 161.5v214h128v-211q0 -44 27 -78q31 -33 71 -33t70 33q28 33 28 78v211h128z" />
    <glyph glyph-name="v" unicode="v" horiz-adv-x="527" 
d="M282 0h-37l-215 431h124l110 -221l109 221h124z" />
    <glyph glyph-name="w" unicode="w" horiz-adv-x="746" 
d="M592 431h124l-224 -431h-17l-102 194l-101 -194h-16l-226 431h124l110 -209l47 90l-62 119h124l110 -209z" />
    <glyph glyph-name="x" unicode="x" horiz-adv-x="541" 
d="M506 431l-158 -221l149 -210h-145l-82 115l-91 -115h-135l149 210l-158 221h145l90 -127l91 127h145z" />
    <glyph glyph-name="y" unicode="y" horiz-adv-x="616" 
d="M56 -313l179 340l-210 404h144l142 -239l132 239h140l-387 -744h-140z" />
    <glyph glyph-name="z" unicode="z" horiz-adv-x="521" 
d="M55 0h397v110h-201l216 295v26h-406v-109h208l-214 -293v-29z" />
    <glyph glyph-name="braceleft" unicode="{" horiz-adv-x="377" 
d="M50 347v-94q21 0 36.5 -4t25 -16.5t15 -22.5t7.5 -34.5t2.5 -40t0.5 -49.5v-11q0 -54 1 -78t9 -57.5t24 -53.5q24 -30 54 -37.5t102 -7.5v92q-21 -1 -36.5 1.5t-26 6t-17 13t-10 16t-5 23t-1.5 26t0.5 33.5t0.5 37q0 93 -12.5 137.5t-63.5 72.5q23 12 38.5 31.5t23 36.5
t11.5 49t4.5 49.5t-0.5 58.5t-1 56q0 60 15 74t80 13v92q-78 1 -114 -14.5t-57 -55.5q-9 -21 -13.5 -52t-5 -50.5t-0.5 -67.5v-12q0 -36 -0.5 -53.5t-5 -43t-13 -37t-26 -19.5t-42.5 -7z" />
    <glyph glyph-name="bar" unicode="|" 
d="M269 -157h78v1064h-78v-1064z" />
    <glyph glyph-name="braceright" unicode="}" horiz-adv-x="382" 
d="M50 -67v-92q72 0 102 7.5t54 37.5q16 20 24 53.5t9 57.5t1 78q0 104 10 132q16 46 77 46v94q-25 -1 -42.5 7t-26 19t-13 37t-5 43t-0.5 54v12q0 48 -0.5 67.5t-5 50.5t-13.5 52q-21 40 -57 55.5t-114 14.5v-92q65 1 80 -13t15 -74q0 -15 -1 -56t-0.5 -58.5t4.5 -49.5
t11.5 -49t23 -36.5t38.5 -31.5q-51 -28 -63.5 -72.5t-12.5 -137.5q0 -13 0.5 -37t0.5 -33.5t-1.5 -26t-5 -23t-10 -16t-17 -13t-26 -6t-36.5 -1.5z" />
    <glyph glyph-name="cent" unicode="&#xa2;" horiz-adv-x="467" 
d="M357 230l58 -96q-57 -41 -128 -44v-90h-70v99q-73 20 -120 81t-47 139t47 138.5t120 81.5v107h70v-99q73 -3 130 -46l-60 -98q-28 31 -70 34v-240q38 3 70 33zM217 211v212q-15 -9 -27 -21q-34 -34 -34 -85t34 -85q12 -12 27 -21z" />
    <glyph glyph-name="sterling" unicode="&#xa3;" 
d="M244 115h280v-115h-458v115q60 0 93 28t33 97q0 49 -11 71h-107v57h66q-55 72 -55 157q0 86 57 136t143 50q83 0 141.5 -45t58.5 -122h-115q0 37 -42.5 49.5t-85 -7t-42.5 -61.5q0 -14 2.5 -26.5t9 -25t11.5 -20t15 -22t15 -21.5q17 -24 25 -42h185v-57h-163q8 -32 8 -70
q0 -29 -20.5 -70t-43.5 -56z" />
    <glyph glyph-name="yen" unicode="&#xa5;" horiz-adv-x="657" 
d="M611 701l-175 -373h90v-70h-123v-1v-34h123v-70h-123v-153h-140v153h-123v70h123v34v1h-123v70h90l-176 373h155l124 -264l123 264h155z" />
    <glyph glyph-name="dieresis" unicode="&#xa8;" horiz-adv-x="458" 
d="M50 756h131v131h-131v-131zM277 756h131v131h-131v-131z" />
    <glyph glyph-name="macron" unicode="&#xaf;" horiz-adv-x="450" 
d="M46 776h357v111h-357v-111z" />
    <glyph glyph-name="degree" unicode="&#xb0;" horiz-adv-x="290" 
d="M140 739q-40 0 -67.5 27.5t-27.5 67.5t27.5 67.5t67.5 27.5t67.5 -27.5t27.5 -67.5t-27.5 -67.5t-67.5 -27.5zM141 790q18 0 30 12.5t12 31.5q0 20 -11.5 31t-30.5 11q-44 0 -44 -42q0 -19 12.5 -31.5t31.5 -12.5z" />
    <glyph glyph-name="plusminus" unicode="&#xb1;" horiz-adv-x="472" 
d="M294 496h133v-116h-133v-133h-116v133h-133v116h133v133h116v-133zM65 182v-116h342v116h-342z" />
    <glyph glyph-name="twosuperior" unicode="&#xb2;" horiz-adv-x="604" 
d="M30 491l127 176q-14 4 -20 7q-18 7 -34 23q-13 12 -24 34q-9 25 -9 43q0 19 9 42q9 22 24 35q15 15 34 24q22 8 43 8t42 -8q21 -10 34 -24q17 -15 24 -35q9 -20 9 -42t-9 -43q-2 -5 -34 -49.5t-62 -85.5l-31 -42h146v-63h-269zM136 778q0 -16 12 -28t28 -12t27.5 11.5
t11.5 28.5q0 16 -11.5 27.5t-27.5 11.5t-28 -11.5t-12 -27.5z" />
    <glyph glyph-name="threesuperior" unicode="&#xb3;" horiz-adv-x="530" 
d="M93 771h-63q2 26 9 42q9 21 25 37q19 18 36 24q25 10 45 10q22 0 45 -10q17 -6 37 -24q16 -16 25 -37t9 -45q0 -22 -9 -45q-11 -23 -25 -36l-3 -3l3 -2q16 -16 25 -36q9 -22 9 -45q0 -24 -9 -45t-25 -37t-37 -25t-45 -9q-23 0 -45 9q-20 9 -36 25t-25 37q-7 16 -9 41h63
q2 -20 16.5 -34.5t35.5 -14.5q22 0 37.5 15.5t15.5 37.5q0 21 -14.5 36.5t-35.5 15.5h-42v63h45q17 0 32 16t15 36q0 22 -15.5 37.5t-37.5 15.5q-21 0 -35.5 -14.5t-16.5 -35.5z" />
    <glyph glyph-name="acute" unicode="&#xb4;" 
d="M173 800l60 -43l217 101l-115 82z" />
    <glyph glyph-name="periodcentered" unicode="&#xb7;" horiz-adv-x="222" 
d="M111 299q-25 0 -45.5 20.5t-20.5 45.5t20.5 45.5t45.5 20.5t45.5 -20.5t20.5 -45.5t-20.5 -45.5t-45.5 -20.5z" />
    <glyph glyph-name="cedilla" unicode="&#xb8;" horiz-adv-x="330" 
d="M84 45h90v-100q98 -30 92 -127q-5 -56 -46.5 -81t-89.5 -16t-74 43l41 44q6 -5 18.5 -10t27 -6.5t26.5 8.5t15 33q3 31 -22 49.5t-52 21.5l-26 3v138z" />
    <glyph glyph-name="onesuperior" unicode="&#xb9;" horiz-adv-x="460" 
d="M162 569h49v-77h-181v77h55v230h-55v77h132v-307z" />
    <glyph glyph-name="ordmasculine" unicode="&#xba;" horiz-adv-x="311" 
d="M161 765q55 0 93 -36.5t38 -88.5q0 -53 -38 -89.5t-93 -36.5q-54 0 -92.5 37t-38.5 89t38.5 88.5t92.5 36.5zM205 593q18 19 18 47q0 27 -18 45q-18 19 -43 19q-27 0 -43 -19q-19 -18 -19 -45q0 -28 19 -47q16 -18 43 -18q25 0 43 18z" />
    <glyph glyph-name="onehalf" unicode="&#xbd;" horiz-adv-x="646" 
d="M162 509h49v-77h-181v77h55v230h-55v77h132v-307zM35 -28l54 -24l471 837l-54 25zM347 1l127 176q-14 4 -20 7q-18 7 -34 23q-13 12 -24 34q-9 25 -9 43q0 19 9 42q9 22 24 35q15 15 34 24q22 8 43 8t42 -8q21 -10 34 -24q17 -15 24 -35q9 -19 9 -42q0 -22 -9 -43
q-2 -5 -34 -49.5t-63 -85.5l-30 -42h146v-63h-269zM453 288q0 -16 11.5 -28t28.5 -12q16 0 27.5 11.5t11.5 28.5q0 16 -11.5 27.5t-27.5 11.5t-28 -11.5t-12 -27.5z" />
    <glyph glyph-name="Agrave" unicode="&#xc0;" horiz-adv-x="799" 
d="M247 860l217 -101l60 43l-162 140zM609 0l-61 130h-290l-66 -130h-157l357 701h41l331 -701h-155zM330 270h152l-73 156z" />
    <glyph glyph-name="Aacute" unicode="&#xc1;" horiz-adv-x="799" 
d="M317 802l60 -43l217 101l-115 82zM609 0l-61 130h-290l-66 -130h-157l357 701h41l331 -701h-155zM330 270h152l-73 156z" />
    <glyph glyph-name="Acircumflex" unicode="&#xc2;" horiz-adv-x="799" 
d="M385 938h58l168 -98l-85 -82l-112 106l-112 -106l-85 82zM609 0l-61 130h-290l-66 -130h-157l357 701h41l331 -701h-155zM330 270h152l-73 156z" />
    <glyph glyph-name="Atilde" unicode="&#xc3;" horiz-adv-x="799" 
d="M205 808l66 -42q38 46 83 46q41 0 74 -20q55 -32 97 -32q25 0 48.5 10t39 24t28 28.5t17.5 24.5l6 10l-59 49q-43 -47 -80 -47q-14 0 -41 17q-66 39 -128 39q-87 0 -151 -107zM609 0l-61 130h-290l-66 -130h-157l357 701h41l331 -701h-155zM330 270h152l-73 156z" />
    <glyph glyph-name="Adieresis" unicode="&#xc4;" horiz-adv-x="799" 
d="M244 758h131v131h-131v-131zM471 758h131v131h-131v-131zM609 0l-61 130h-290l-66 -130h-157l357 701h41l331 -701h-155zM330 270h152l-73 156z" />
    <glyph glyph-name="Aring" unicode="&#xc5;" horiz-adv-x="799" 
d="M414 746q-40 0 -67.5 27t-27.5 68t27.5 68t67.5 27t67.5 -27.5t27.5 -67.5t-27.5 -67.5t-67.5 -27.5zM415 797q18 0 30 12.5t12 31.5q0 20 -11.5 31t-30.5 11q-44 0 -44 -42q0 -19 12.5 -31.5t31.5 -12.5zM609 0l-61 130h-290l-66 -130h-157l357 701h41l331 -701h-155z
M330 270h152l-73 156z" />
    <glyph glyph-name="AE" unicode="&#xc6;" horiz-adv-x="950" 
d="M905 561h-317v-129h260v-140h-260v-152h314v-139h-444v129h-189l-67 -131h-157l357 702h503v-140zM340 270h118v156h-39z" />
    <glyph glyph-name="Ccedilla" unicode="&#xc7;" horiz-adv-x="725" 
d="M413 -14v-41q98 -30 92 -127q-5 -56 -46.5 -81t-89.5 -16t-74 43l41 44q6 -5 18.5 -10t27 -6.5t26.5 8.5t15 33q3 31 -22 49.5t-51 21.5l-27 3v95q-113 34 -185.5 130t-72.5 217q0 150 106.5 256.5t256.5 106.5q125 0 224 -77l-90 -104q-50 32 -110.5 34.5t-111 -21.5
t-85 -75.5t-34.5 -119.5q0 -71 36 -124t88.5 -76t114.5 -18t110 42l90 -103q-102 -84 -232 -84h-15z" />
    <glyph glyph-name="Egrave" unicode="&#xc8;" horiz-adv-x="597" 
d="M132 858l217 -101l60 43l-162 140zM532 701v-140h-327v-129h270v-140h-270v-152h324v-140h-464v701h467z" />
    <glyph glyph-name="Eacute" unicode="&#xc9;" horiz-adv-x="597" 
d="M202 800l60 -43l217 101l-115 82zM532 701v-140h-327v-129h270v-140h-270v-152h324v-140h-464v701h467z" />
    <glyph glyph-name="Ecircumflex" unicode="&#xca;" horiz-adv-x="597" 
d="M270 936h58l168 -98l-85 -82l-112 106l-112 -106l-85 82zM532 701v-140h-327v-129h270v-140h-270v-152h324v-140h-464v701h467z" />
    <glyph glyph-name="Edieresis" unicode="&#xcb;" horiz-adv-x="597" 
d="M129 756h131v131h-131v-131zM356 756h131v131h-131v-131zM532 701v-140h-327v-129h270v-140h-270v-152h324v-140h-464v701h467z" />
    <glyph glyph-name="Igrave" unicode="&#xcc;" horiz-adv-x="419" 
d="M42 857l217 -101l60 43l-162 140zM354 561h-74v-421h74v-140h-289v140h75v421h-75v140h289v-140z" />
    <glyph glyph-name="Iacute" unicode="&#xcd;" horiz-adv-x="419" 
d="M112 799l60 -43l217 101l-115 82zM354 561h-74v-421h74v-140h-289v140h75v421h-75v140h289v-140z" />
    <glyph glyph-name="Icircumflex" unicode="&#xce;" horiz-adv-x="419" 
d="M180 935h58l168 -98l-85 -82l-112 106l-112 -106l-85 82zM354 561h-74v-421h74v-140h-289v140h75v421h-75v140h289v-140z" />
    <glyph glyph-name="Idieresis" unicode="&#xcf;" horiz-adv-x="419" 
d="M39 755h131v131h-131v-131zM266 755h131v131h-131v-131zM354 561h-74v-421h74v-140h-289v140h75v421h-75v140h289v-140z" />
    <glyph glyph-name="Eth" unicode="&#xd0;" horiz-adv-x="678" 
d="M65 701h198q71 0 136 -27q63 -27 111 -75q50 -50 75 -112q28 -63 28 -136q0 -74 -28 -137q-25 -63 -75 -111q-51 -51 -111 -75q-63 -28 -136 -28h-141v1h-57v700zM205 140h58q87 0 148.5 62t61.5 149t-61.5 148.5t-148.5 61.5h-58v-421zM3 403v-116h342v116h-342z" />
    <glyph glyph-name="Ntilde" unicode="&#xd1;" horiz-adv-x="701" 
d="M141 808l66 -42q38 46 83 46q41 0 74 -20q55 -32 97 -32q25 0 48.5 10t39 24t28 28.5t17.5 24.5l6 10l-59 49q-43 -47 -80 -47q-14 0 -41 17q-66 39 -128 39q-87 0 -151 -107zM599 0h37v701h-140v-392l-387 392h-44v-701h140v409z" />
    <glyph glyph-name="Ograve" unicode="&#xd2;" horiz-adv-x="836" 
d="M251 860l217 -101l60 43l-162 140zM418 714q150 0 256.5 -106.5t106.5 -256.5t-106.5 -256.5t-256.5 -106.5t-256.5 106.5t-106.5 256.5t106.5 256.5t256.5 106.5zM418 570q-91 0 -155 -64t-64 -155t64 -155t155 -64t155 64t64 155t-64 155t-155 64z" />
    <glyph glyph-name="Oacute" unicode="&#xd3;" horiz-adv-x="836" 
d="M321 802l60 -43l217 101l-115 82zM418 714q150 0 256.5 -106.5t106.5 -256.5t-106.5 -256.5t-256.5 -106.5t-256.5 106.5t-106.5 256.5t106.5 256.5t256.5 106.5zM418 570q-91 0 -155 -64t-64 -155t64 -155t155 -64t155 64t64 155t-64 155t-155 64z" />
    <glyph glyph-name="Ocircumflex" unicode="&#xd4;" horiz-adv-x="836" 
d="M389 938h58l168 -98l-85 -82l-112 106l-112 -106l-85 82zM418 714q150 0 256.5 -106.5t106.5 -256.5t-106.5 -256.5t-256.5 -106.5t-256.5 106.5t-106.5 256.5t106.5 256.5t256.5 106.5zM418 570q-91 0 -155 -64t-64 -155t64 -155t155 -64t155 64t64 155t-64 155t-155 64
z" />
    <glyph glyph-name="Otilde" unicode="&#xd5;" horiz-adv-x="836" 
d="M209 808l66 -42q38 46 83 46q41 0 74 -20q55 -32 97 -32q25 0 48.5 10t39 24t28 28.5t17.5 24.5l6 10l-59 49q-43 -47 -80 -47q-14 0 -41 17q-66 39 -128 39q-87 0 -151 -107zM418 714q150 0 256.5 -106.5t106.5 -256.5t-106.5 -256.5t-256.5 -106.5t-256.5 106.5
t-106.5 256.5t106.5 256.5t256.5 106.5zM418 570q-91 0 -155 -64t-64 -155t64 -155t155 -64t155 64t64 155t-64 155t-155 64z" />
    <glyph glyph-name="Odieresis" unicode="&#xd6;" horiz-adv-x="836" 
d="M248 758h131v131h-131v-131zM475 758h131v131h-131v-131zM418 714q150 0 256.5 -106.5t106.5 -256.5t-106.5 -256.5t-256.5 -106.5t-256.5 106.5t-106.5 256.5t106.5 256.5t256.5 106.5zM418 570q-91 0 -155 -64t-64 -155t64 -155t155 -64t155 64t64 155t-64 155t-155 64
z" />
    <glyph glyph-name="multiply" unicode="&#xd7;" horiz-adv-x="457" 
d="M236 151l-94 -94l-82 82l94 94l-94 94l82 82l94 -94l94 94l82 -82l-94 -94l94 -94l-82 -82z" />
    <glyph glyph-name="Oslash" unicode="&#xd8;" horiz-adv-x="836" 
d="M777 660l-79 -79q83 -101 83 -232q0 -150 -106.5 -256.5t-256.5 -106.5q-129 0 -231 84l-79 -79l-48 48l79 79q-84 102 -84 231q0 150 106.5 256.5t256.5 106.5q131 0 232 -83l79 79zM238 217l313 312q-58 43 -133 43q-93 0 -158 -65t-65 -158q0 -74 43 -132zM598 482
l-312 -313q58 -43 132 -43q93 0 158 65t65 158q0 75 -43 133z" />
    <glyph glyph-name="Ugrave" unicode="&#xd9;" horiz-adv-x="643" 
d="M155 860l217 -101l60 43l-162 140zM592 259h1q0 -112 -79.5 -191.5t-191.5 -79.5t-191.5 79t-80.5 191v443h140v-442q0 -54 39 -93q38 -38 93 -38q54 0 92 38q37 37 39 92h-1v443h140v-442z" />
    <glyph glyph-name="Uacute" unicode="&#xda;" horiz-adv-x="643" 
d="M225 802l60 -43l217 101l-115 82zM592 259h1q0 -112 -79.5 -191.5t-191.5 -79.5t-191.5 79t-80.5 191v443h140v-442q0 -54 39 -93q38 -38 93 -38q54 0 92 38q37 37 39 92h-1v443h140v-442z" />
    <glyph glyph-name="Ucircumflex" unicode="&#xdb;" horiz-adv-x="643" 
d="M293 938h58l168 -98l-85 -82l-112 106l-112 -106l-85 82zM592 259h1q0 -112 -79.5 -191.5t-191.5 -79.5t-191.5 79t-80.5 191v443h140v-442q0 -54 39 -93q38 -38 93 -38q54 0 92 38q37 37 39 92h-1v443h140v-442z" />
    <glyph glyph-name="Udieresis" unicode="&#xdc;" horiz-adv-x="643" 
d="M152 758h131v131h-131v-131zM379 758h131v131h-131v-131zM592 259h1q0 -112 -79.5 -191.5t-191.5 -79.5t-191.5 79t-80.5 191v443h140v-442q0 -54 39 -93q38 -38 93 -38q54 0 92 38q37 37 39 92h-1v443h140v-442z" />
    <glyph glyph-name="Yacute" unicode="&#xdd;" horiz-adv-x="687" 
d="M247 802l60 -43l217 101l-115 82zM487 701h155l-228 -444v-257h-140v257l-229 444h155l144 -264z" />
    <glyph glyph-name="Thorn" unicode="&#xde;" 
d="M205 638h84q95 0 162 -67t67 -162t-67 -162t-162 -67h-84v-180h-115v701h115v-63zM205 291h84q50 0 81 34q32 35 32 84t-32 83q-30 35 -81 35h-84v-236z" />
    <glyph glyph-name="germandbls" unicode="&#xdf;" 
d="M277 112l-19 -97q2 -2 17 -7.5t46 -12.5t61 -7q83 0 129.5 42.5t48.5 131.5q2 74 -44 137t-115 75q30 9 50.5 39t27.5 61t7 60q0 84 -52.5 132t-144.5 48q-86 0 -141.5 -55.5t-55.5 -157.5v-501h108v505q0 105 89 105q48 0 70.5 -24.5t22.5 -53.5q0 -23 -2.5 -39t-12 -38
t-34.5 -34t-63 -12v-96q41 0 92 -24q94 -44 90 -125q-1 -46 -27 -59t-82 -6z" />
    <glyph glyph-name="agrave" unicode="&#xe0;" horiz-adv-x="553" 
d="M134 674l217 -101l60 43l-162 140zM417 431h96v-431h-106v42q-64 -54 -148 -54q-95 0 -162 66.5t-67 161.5t67 161.5t162 66.5q84 0 148 -54zM354 133q33 35 33 83q0 50 -33 83q-32 34 -79 34q-46 0 -80 -34q-33 -35 -33 -83q0 -47 33 -83q34 -34 80 -34q47 0 79 34z" />
    <glyph glyph-name="aacute" unicode="&#xe1;" horiz-adv-x="553" 
d="M204 616l60 -43l217 101l-115 82zM417 431h96v-431h-106v42q-64 -54 -148 -54q-95 0 -162 66.5t-67 161.5t67 161.5t162 66.5q84 0 148 -54zM354 133q33 35 33 83q0 50 -33 83q-32 34 -79 34q-46 0 -80 -34q-33 -35 -33 -83q0 -47 33 -83q34 -34 80 -34q47 0 79 34z" />
    <glyph glyph-name="acircumflex" unicode="&#xe2;" horiz-adv-x="553" 
d="M272 752h58l168 -98l-85 -82l-112 106l-112 -106l-85 82zM417 431h96v-431h-106v42q-64 -54 -148 -54q-95 0 -162 66.5t-67 161.5t67 161.5t162 66.5q84 0 148 -54zM354 133q33 35 33 83q0 50 -33 83q-32 34 -79 34q-46 0 -80 -34q-33 -35 -33 -83q0 -47 33 -83
q34 -34 80 -34q47 0 79 34z" />
    <glyph glyph-name="atilde" unicode="&#xe3;" horiz-adv-x="553" 
d="M92 622l66 -42q38 46 83 46q41 0 74 -20q55 -32 97 -32q25 0 48.5 10t39 24t28 28.5t18.5 24.5l5 10l-59 49q-43 -47 -80 -47q-14 0 -41 17q-66 39 -128 39q-87 0 -151 -107zM417 431h96v-431h-106v42q-64 -54 -148 -54q-95 0 -162 66.5t-67 161.5t67 161.5t162 66.5
q84 0 148 -54zM354 133q33 35 33 83q0 50 -33 83q-32 34 -79 34q-46 0 -80 -34q-33 -35 -33 -83q0 -47 33 -83q34 -34 80 -34q47 0 79 34z" />
    <glyph glyph-name="adieresis" unicode="&#xe4;" horiz-adv-x="553" 
d="M131 572h131v131h-131v-131zM358 572h131v131h-131v-131zM417 431h96v-431h-106v42q-64 -54 -148 -54q-95 0 -162 66.5t-67 161.5t67 161.5t162 66.5q84 0 148 -54zM354 133q33 35 33 83q0 50 -33 83q-32 34 -79 34q-46 0 -80 -34q-33 -35 -33 -83q0 -47 33 -83
q34 -34 80 -34q47 0 79 34z" />
    <glyph glyph-name="aring" unicode="&#xe5;" horiz-adv-x="553" 
d="M301 560q-41 0 -68 27t-27 68t27 68t68 27q40 0 67.5 -27.5t27.5 -67.5t-27.5 -67.5t-67.5 -27.5zM302 611q18 0 30 12.5t12 31.5q0 20 -11.5 31t-30.5 11q-44 0 -44 -42q0 -19 12.5 -31.5t31.5 -12.5zM417 431h96v-431h-106v42q-64 -54 -148 -54q-95 0 -162 66.5
t-67 161.5t67 161.5t162 66.5q84 0 148 -54zM354 133q33 35 33 83q0 50 -33 83q-32 34 -79 34q-46 0 -80 -34q-33 -35 -33 -83q0 -47 33 -83q34 -34 80 -34q47 0 79 34z" />
    <glyph glyph-name="ae" unicode="&#xe6;" horiz-adv-x="908" 
d="M523 431v-19q52 32 116 32q95 0 162 -67t67 -162q0 -22 -4 -41h-322q9 -25 25 -42q32 -35 77 -35q42 0 74 32l94 -63q-67 -80 -173 -80q-56 0 -104.5 25t-80.5 69q-31 -44 -80 -69.5t-105 -25.5q-95 0 -162 67t-67 162t67 162t162 67q84 0 148 -54v42h106zM540 250h207
q-8 28 -27 49q-31 34 -76 34t-77 -34q-17 -20 -27 -49zM364 131q33 35 33 83q0 50 -33 83q-32 34 -79 34q-46 0 -80 -34q-33 -35 -33 -83q0 -47 33 -83q34 -34 80 -34q47 0 79 34z" />
    <glyph glyph-name="ccedilla" unicode="&#xe7;" horiz-adv-x="463" 
d="M365 132l56 -100q-64 -43 -139 -44v-43q98 -30 92 -127q-5 -56 -46.5 -81t-89.5 -16t-74 43l41 44q6 -5 18.5 -10t27 -6.5t26.5 8.5t15 33q3 31 -22 49.5t-52 21.5l-26 3v97q-68 25 -110 83t-42 130q0 94 70 161t169 67q79 0 144 -46l-58 -102q-24 26 -59.5 32
t-67.5 -5.5t-55 -40.5t-23 -68q0 -35 21.5 -63.5t52.5 -42t67.5 -9t63.5 31.5z" />
    <glyph glyph-name="egrave" unicode="&#xe8;" horiz-adv-x="528" 
d="M99 674l217 -101l60 43l-162 140zM343 131l94 -63q-67 -80 -173 -80q-94 0 -161.5 67t-67.5 162t67 162t162 67t162 -67t67 -162q0 -22 -4 -41h-322q9 -25 25 -42q32 -35 77 -35q42 0 74 32zM165 252h207q-8 28 -27 49q-31 34 -76 34t-77 -34q-17 -20 -27 -49z" />
    <glyph glyph-name="eacute" unicode="&#xe9;" horiz-adv-x="528" 
d="M169 616l60 -43l217 101l-115 82zM343 131l94 -63q-67 -80 -173 -80q-94 0 -161.5 67t-67.5 162t67 162t162 67t162 -67t67 -162q0 -22 -4 -41h-322q9 -25 25 -42q32 -35 77 -35q42 0 74 32zM165 252h207q-8 28 -27 49q-31 34 -76 34t-77 -34q-17 -20 -27 -49z" />
    <glyph glyph-name="ecircumflex" unicode="&#xea;" horiz-adv-x="528" 
d="M237 752h58l168 -98l-85 -82l-112 106l-112 -106l-85 82zM343 131l94 -63q-67 -80 -173 -80q-94 0 -161.5 67t-67.5 162t67 162t162 67t162 -67t67 -162q0 -22 -4 -41h-322q9 -25 25 -42q32 -35 77 -35q42 0 74 32zM165 252h207q-8 28 -27 49q-31 34 -76 34t-77 -34
q-17 -20 -27 -49z" />
    <glyph glyph-name="edieresis" unicode="&#xeb;" horiz-adv-x="528" 
d="M96 572h131v131h-131v-131zM323 572h131v131h-131v-131zM343 131l94 -63q-67 -80 -173 -80q-94 0 -161.5 67t-67.5 162t67 162t162 67t162 -67t67 -162q0 -22 -4 -41h-322q9 -25 25 -42q32 -35 77 -35q42 0 74 32zM165 252h207q-8 28 -27 49q-31 34 -76 34t-77 -34
q-17 -20 -27 -49z" />
    <glyph glyph-name="igrave" unicode="&#xec;" horiz-adv-x="209" 
d="M-62 674l217 -101l60 43l-162 140zM40 0h129v431h-129v-431z" />
    <glyph glyph-name="iacute" unicode="&#xed;" horiz-adv-x="209" 
d="M8 616l60 -43l217 101l-115 82zM40 0h129v431h-129v-431z" />
    <glyph glyph-name="icircumflex" unicode="&#xee;" horiz-adv-x="209" 
d="M76 752h58l168 -98l-85 -82l-112 106l-112 -106l-85 82zM40 0h129v431h-129v-431z" />
    <glyph glyph-name="idieresis" unicode="&#xef;" horiz-adv-x="209" 
d="M-65 572h131v131h-131v-131zM162 572h131v131h-131v-131zM40 0h129v431h-129v-431z" />
    <glyph glyph-name="eth" unicode="&#xf0;" 
d="M384 629l-77 -44q96 -68 161 -157q59 -80 66 -187v-10q2 -18 2 -26q0 -45 -18 -84q-18 -40 -49 -69q-32 -30 -73 -47q-43 -17 -89 -17t-89 17q-42 17 -72 47q-33 32 -49 69q-18 39 -18 84q0 44 18 85q16 37 49 69q28 28 72 46q40 17 89 17q11 0 33 -2q-45 63 -114 118
l-122 -69l-22 42l102 59q-35 25 -95 61l51 55q78 -43 123 -72l99 57zM307 103q43 0 72.5 30t29.5 72q0 43 -29.5 72.5t-72.5 29.5q-42 0 -72 -29.5t-30 -72.5q0 -42 30 -72t72 -30z" />
    <glyph glyph-name="ntilde" unicode="&#xf1;" horiz-adv-x="536" 
d="M57 622l66 -42q38 46 83 46q41 0 74 -20q55 -32 97 -32q25 0 48.5 10t39 24t28 28.5t17.5 24.5l6 10l-59 49q-43 -47 -80 -47q-14 0 -41 17q-66 39 -128 39q-87 0 -151 -107zM142 431l20 -38q57 50 123 50q87 0 149 -67t62 -162v-214h-122v214q0 47 -30 82t-74 35
t-74 -35t-30 -82v-214h-126v431h102z" />
    <glyph glyph-name="ograve" unicode="&#xf2;" horiz-adv-x="537" 
d="M99 672l217 -101l60 43l-162 140zM268 444q100 0 169.5 -66.5t69.5 -161.5t-69.5 -161.5t-169.5 -66.5q-99 0 -168.5 66.5t-69.5 161.5t69.5 161.5t168.5 66.5zM349 132q32 35 32 85q0 48 -32 82q-33 35 -80 35q-48 0 -78 -35q-34 -33 -34 -83t34 -84q31 -34 78 -34
q46 0 80 34z" />
    <glyph glyph-name="oacute" unicode="&#xf3;" horiz-adv-x="537" 
d="M169 614l60 -43l217 101l-115 82zM268 444q100 0 169.5 -66.5t69.5 -161.5t-69.5 -161.5t-169.5 -66.5q-99 0 -168.5 66.5t-69.5 161.5t69.5 161.5t168.5 66.5zM349 132q32 35 32 85q0 48 -32 82q-33 35 -80 35q-48 0 -78 -35q-34 -33 -34 -83t34 -84q31 -34 78 -34
q46 0 80 34z" />
    <glyph glyph-name="ocircumflex" unicode="&#xf4;" horiz-adv-x="537" 
d="M237 750h58l168 -98l-85 -82l-112 106l-112 -106l-85 82zM268 444q100 0 169.5 -66.5t69.5 -161.5t-69.5 -161.5t-169.5 -66.5q-99 0 -168.5 66.5t-69.5 161.5t69.5 161.5t168.5 66.5zM349 132q32 35 32 85q0 48 -32 82q-33 35 -80 35q-48 0 -78 -35q-34 -33 -34 -83
t34 -84q31 -34 78 -34q46 0 80 34z" />
    <glyph glyph-name="otilde" unicode="&#xf5;" horiz-adv-x="537" 
d="M57 620l66 -42q38 46 83 46q41 0 74 -20q55 -32 97 -32q25 0 48.5 10t39 24t28 28.5t17.5 24.5l6 10l-59 49q-43 -47 -80 -47q-14 0 -41 17q-66 39 -128 39q-87 0 -151 -107zM268 444q100 0 169.5 -66.5t69.5 -161.5t-69.5 -161.5t-169.5 -66.5q-99 0 -168.5 66.5
t-69.5 161.5t69.5 161.5t168.5 66.5zM349 132q32 35 32 85q0 48 -32 82q-33 35 -80 35q-48 0 -78 -35q-34 -33 -34 -83t34 -84q31 -34 78 -34q46 0 80 34z" />
    <glyph glyph-name="odieresis" unicode="&#xf6;" horiz-adv-x="537" 
d="M96 570h131v131h-131v-131zM323 570h131v131h-131v-131zM268 444q100 0 169.5 -66.5t69.5 -161.5t-69.5 -161.5t-169.5 -66.5q-99 0 -168.5 66.5t-69.5 161.5t69.5 161.5t168.5 66.5zM349 132q32 35 32 85q0 48 -32 82q-33 35 -80 35q-48 0 -78 -35q-34 -33 -34 -83
t34 -84q31 -34 78 -34q46 0 80 34z" />
    <glyph glyph-name="divide" unicode="&#xf7;" horiz-adv-x="562" 
d="M223 362h117v117h-117v-117zM65 291v-116h432v116h-432zM223 -2h117v117h-117v-117z" />
    <glyph glyph-name="oslash" unicode="&#xf8;" horiz-adv-x="537" 
d="M485 383l-31 -30q45 -61 45 -136q0 -95 -67 -162t-162 -67q-77 0 -136 45l-36 -36l-48 48l36 35q-44 60 -44 137q0 95 67 162t161 67q75 0 136 -45l36 35l48 -47zM176 170l150 150q-22 15 -51 15q-46 0 -76 -35q-32 -34 -32 -83q0 -26 9 -47zM371 270l-153 -154
q25 -17 57 -17q45 0 76 34q32 35 32 84q0 29 -12 53z" />
    <glyph glyph-name="ugrave" unicode="&#xf9;" horiz-adv-x="516" 
d="M91 672l217 -101l60 43l-162 140zM484 431v-214q0 -94 -68.5 -161.5t-157.5 -67.5t-157.5 67.5t-68.5 161.5v214h128v-211q0 -44 27 -78q31 -33 71 -33t70 33q28 33 28 78v211h128z" />
    <glyph glyph-name="uacute" unicode="&#xfa;" horiz-adv-x="516" 
d="M161 614l60 -43l217 101l-115 82zM484 431v-214q0 -94 -68.5 -161.5t-157.5 -67.5t-157.5 67.5t-68.5 161.5v214h128v-211q0 -44 27 -78q31 -33 71 -33t70 33q28 33 28 78v211h128z" />
    <glyph glyph-name="ucircumflex" unicode="&#xfb;" horiz-adv-x="516" 
d="M229 750h58l168 -98l-85 -82l-112 106l-112 -106l-85 82zM484 431v-214q0 -94 -68.5 -161.5t-157.5 -67.5t-157.5 67.5t-68.5 161.5v214h128v-211q0 -44 27 -78q31 -33 71 -33t70 33q28 33 28 78v211h128z" />
    <glyph glyph-name="udieresis" unicode="&#xfc;" horiz-adv-x="516" 
d="M88 570h131v131h-131v-131zM315 570h131v131h-131v-131zM484 431v-214q0 -94 -68.5 -161.5t-157.5 -67.5t-157.5 67.5t-68.5 161.5v214h128v-211q0 -44 27 -78q31 -33 71 -33t70 33q28 33 28 78v211h128z" />
    <glyph glyph-name="yacute" unicode="&#xfd;" horiz-adv-x="616" 
d="M228 616l60 -43l217 101l-115 82zM56 -313l179 340l-210 404h144l142 -239l132 239h140l-387 -744h-140z" />
    <glyph glyph-name="thorn" unicode="&#xfe;" 
d="M199 719v-304q53 31 114 31q95 0 162 -67t67 -162t-67 -162t-162 -67q-61 0 -114 31v-147h-115v847h115zM394 133q32 35 32 84t-32 83q-30 35 -76 35t-76 -35q-32 -34 -32 -83t32 -84q31 -34 76 -34t76 34z" />
    <glyph glyph-name="ydieresis" unicode="&#xff;" horiz-adv-x="616" 
d="M155 572h131v131h-131v-131zM382 572h131v131h-131v-131zM56 -313l179 340l-210 404h144l142 -239l132 239h140l-387 -744h-140z" />
    <glyph glyph-name="Amacron" unicode="&#x100;" horiz-adv-x="799" 
d="M235 778h357v111h-357v-111zM609 0l-61 130h-290l-66 -130h-157l357 701h41l331 -701h-155zM330 270h152l-73 156z" />
    <glyph glyph-name="amacron" unicode="&#x101;" horiz-adv-x="553" 
d="M122 592h357v111h-357v-111zM417 431h96v-431h-106v42q-64 -54 -148 -54q-95 0 -162 66.5t-67 161.5t67 161.5t162 66.5q84 0 148 -54zM354 133q33 35 33 83q0 50 -33 83q-32 34 -79 34q-46 0 -80 -34q-33 -35 -33 -83q0 -47 33 -83q34 -34 80 -34q47 0 79 34z" />
    <glyph glyph-name="Abreve" unicode="&#x102;" horiz-adv-x="799" 
d="M475 888h74q0 -55 -39.5 -93.5t-95.5 -38.5q-55 0 -95 38.5t-40 93.5h75q0 -59 59 -59q62 0 62 59zM609 0l-61 130h-290l-66 -130h-157l357 701h41l331 -701h-155zM330 270h152l-73 156z" />
    <glyph glyph-name="abreve" unicode="&#x103;" horiz-adv-x="553" 
d="M362 702h74q0 -55 -39.5 -93.5t-95.5 -38.5q-55 0 -95 38.5t-40 93.5h75q0 -59 59 -59q62 0 62 59zM417 431h96v-431h-106v42q-64 -54 -148 -54q-95 0 -162 66.5t-67 161.5t67 161.5t162 66.5q84 0 148 -54zM354 133q33 35 33 83q0 50 -33 83q-32 34 -79 34
q-46 0 -80 -34q-33 -35 -33 -83q0 -47 33 -83q34 -34 80 -34q47 0 79 34z" />
    <glyph glyph-name="Aogonek" unicode="&#x104;" horiz-adv-x="799" 
d="M764 0h-81q-3 -5 -8 -14t-15.5 -34t-16.5 -46t-5 -44t13 -34q39 -36 126 -21v-105q0 1 -10.5 -1t-32 -5t-41.5 -3q-65 0 -110 42.5t-45 106.5q0 22 4.5 43t11 36t15.5 30t16 23t14 16.5t8 9.5h2l-61 130h-290l-66 -130h-157l357 701h41zM330 270h152l-73 156z" />
    <glyph glyph-name="aogonek" unicode="&#x105;" horiz-adv-x="553" 
d="M513 0h-28q-3 -5 -8 -14t-15.5 -34t-16.5 -46t-5 -44t13 -34q39 -36 126 -21v-105q0 1 -10.5 -1t-32 -5t-41.5 -3q-65 0 -110 42.5t-45 106.5q0 22 4.5 43t11 36t15.5 30t16 23t14 16.5t8 9.5h-2v42q-64 -54 -148 -54q-95 0 -162 66.5t-67 161.5t67 161.5t162 66.5
q84 0 148 -54l10 41h96v-431zM354 133q33 35 33 83q0 50 -33 83q-32 34 -79 34q-46 0 -80 -34q-33 -35 -33 -83q0 -47 33 -83q34 -34 80 -34q47 0 79 34z" />
    <glyph glyph-name="Cacute" unicode="&#x106;" horiz-adv-x="725" 
d="M317 802l60 -43l217 101l-115 82zM652 635l-90 -104q-50 32 -110.5 34.5t-111 -21.5t-85 -75.5t-34.5 -119.5q0 -71 36 -124t88.5 -76t114.5 -18t110 42l90 -103q-102 -84 -232 -84q-150 0 -256.5 106.5t-106.5 256.5t106.5 256.5t256.5 106.5q125 0 224 -77z" />
    <glyph glyph-name="cacute" unicode="&#x107;" horiz-adv-x="463" 
d="M154 616l60 -43l217 101l-115 82zM423 399l-58 -102q-24 26 -59.5 32t-67.5 -5.5t-55 -40.5t-23 -68q0 -35 21.5 -63.5t52.5 -42t67.5 -9t63.5 31.5l56 -100q-65 -44 -142 -44q-99 0 -169 67t-70 162q0 94 70 161t169 67q79 0 144 -46z" />
    <glyph glyph-name="Ccircumflex" unicode="&#x108;" horiz-adv-x="725" 
d="M385 938h58l168 -98l-85 -82l-112 106l-112 -106l-85 82zM652 635l-90 -104q-50 32 -110.5 34.5t-111 -21.5t-85 -75.5t-34.5 -119.5q0 -71 36 -124t88.5 -76t114.5 -18t110 42l90 -103q-102 -84 -232 -84q-150 0 -256.5 106.5t-106.5 256.5t106.5 256.5t256.5 106.5
q125 0 224 -77z" />
    <glyph glyph-name="ccircumflex" unicode="&#x109;" horiz-adv-x="463" 
d="M222 752h58l168 -98l-85 -82l-112 106l-112 -106l-85 82zM423 399l-58 -102q-24 26 -59.5 32t-67.5 -5.5t-55 -40.5t-23 -68q0 -35 21.5 -63.5t52.5 -42t67.5 -9t63.5 31.5l56 -100q-65 -44 -142 -44q-99 0 -169 67t-70 162q0 94 70 161t169 67q79 0 144 -46z" />
    <glyph glyph-name="Cdotaccent" unicode="&#x10a;" horiz-adv-x="725" 
d="M414 772q-32 0 -53 21t-21 53t21 53t53 21t53 -21t21 -53t-21 -53t-53 -21zM652 635l-90 -104q-50 32 -110.5 34.5t-111 -21.5t-85 -75.5t-34.5 -119.5q0 -71 36 -124t88.5 -76t114.5 -18t110 42l90 -103q-102 -84 -232 -84q-150 0 -256.5 106.5t-106.5 256.5
t106.5 256.5t256.5 106.5q125 0 224 -77z" />
    <glyph glyph-name="cdotaccent" unicode="&#x10b;" horiz-adv-x="463" 
d="M251 586q-32 0 -53 21t-21 53t21 53t53 21t53 -21t21 -53t-21 -53t-53 -21zM423 399l-58 -102q-24 26 -59.5 32t-67.5 -5.5t-55 -40.5t-23 -68q0 -35 21.5 -63.5t52.5 -42t67.5 -9t63.5 31.5l56 -100q-65 -44 -142 -44q-99 0 -169 67t-70 162q0 94 70 161t169 67
q79 0 144 -46z" />
    <glyph glyph-name="Ccaron" unicode="&#x10c;" horiz-adv-x="725" 
d="M611 856l-168 -98h-58l-168 98l85 82l112 -106l112 106zM652 635l-90 -104q-50 32 -110.5 34.5t-111 -21.5t-85 -75.5t-34.5 -119.5q0 -71 36 -124t88.5 -76t114.5 -18t110 42l90 -103q-102 -84 -232 -84q-150 0 -256.5 106.5t-106.5 256.5t106.5 256.5t256.5 106.5
q125 0 224 -77z" />
    <glyph glyph-name="ccaron" unicode="&#x10d;" horiz-adv-x="463" 
d="M448 670l-168 -98h-58l-168 98l85 82l112 -106l112 106zM423 399l-58 -102q-24 26 -59.5 32t-67.5 -5.5t-55 -40.5t-23 -68q0 -35 21.5 -63.5t52.5 -42t67.5 -9t63.5 31.5l56 -100q-65 -44 -142 -44q-99 0 -169 67t-70 162q0 94 70 161t169 67q79 0 144 -46z" />
    <glyph glyph-name="Dcaron" unicode="&#x10e;" horiz-adv-x="678" 
d="M478 856l-168 -98h-58l-168 98l85 82l112 -106l112 106zM65 701h198q71 0 136 -27q63 -27 111 -75q50 -50 75 -112q28 -63 28 -136q0 -74 -28 -137q-25 -63 -75 -111q-51 -51 -111 -75q-63 -28 -136 -28h-141v1h-57v700zM205 140h58q87 0 148.5 62t61.5 149t-61.5 148.5
t-148.5 61.5h-58v-421z" />
    <glyph glyph-name="dcaron" unicode="&#x10f;" horiz-adv-x="721" 
d="M423 0v51q-67 -65 -160 -65q-95 0 -161.5 67t-66.5 162t67 162t161 67q93 0 160 -65v365h118v-744h-118zM566 502h73l62 209h-141zM167 215q0 -48 33 -83q32 -34 79 -34q48 0 80 34q33 35 33 83q0 47 -33 83q-32 34 -80 34q-47 0 -79 -34q-33 -36 -33 -83z" />
    <glyph glyph-name="Dcroat" unicode="&#x110;" horiz-adv-x="678" 
d="M102 778h357v111h-357v-111zM65 701h198q71 0 136 -27q63 -27 111 -75q50 -50 75 -112q28 -63 28 -136q0 -74 -28 -137q-25 -63 -75 -111q-51 -51 -111 -75q-63 -28 -136 -28h-141v1h-57v700zM205 140h58q87 0 148.5 62t61.5 149t-61.5 148.5t-148.5 61.5h-58v-421z" />
    <glyph glyph-name="dcroat" unicode="&#x111;" horiz-adv-x="581" 
d="M301 806h357v111h-357v-111zM423 0v51q-67 -65 -160 -65q-95 0 -161.5 67t-66.5 162t67 162t161 67q93 0 160 -65v365h118v-744h-118zM167 215q0 -48 33 -83q32 -34 79 -34q48 0 80 34q33 35 33 83q0 47 -33 83q-32 34 -80 34q-47 0 -79 -34q-33 -36 -33 -83z" />
    <glyph glyph-name="Emacron" unicode="&#x112;" horiz-adv-x="597" 
d="M120 776h357v111h-357v-111zM532 701v-140h-327v-129h270v-140h-270v-152h324v-140h-464v701h467z" />
    <glyph glyph-name="emacron" unicode="&#x113;" horiz-adv-x="528" 
d="M87 592h357v111h-357v-111zM343 131l94 -63q-67 -80 -173 -80q-94 0 -161.5 67t-67.5 162t67 162t162 67t162 -67t67 -162q0 -22 -4 -41h-322q9 -25 25 -42q32 -35 77 -35q42 0 74 32zM165 252h207q-8 28 -27 49q-31 34 -76 34t-77 -34q-17 -20 -27 -49z" />
    <glyph glyph-name="Ebreve" unicode="&#x114;" horiz-adv-x="597" 
d="M360 886h74q0 -55 -39.5 -93.5t-95.5 -38.5q-55 0 -95 38.5t-40 93.5h75q0 -59 59 -59q62 0 62 59zM532 701v-140h-327v-129h270v-140h-270v-152h324v-140h-464v701h467z" />
    <glyph glyph-name="ebreve" unicode="&#x115;" horiz-adv-x="528" 
d="M327 702h74q0 -55 -39.5 -93.5t-95.5 -38.5q-55 0 -95 38.5t-40 93.5h75q0 -59 59 -59q62 0 62 59zM343 131l94 -63q-67 -80 -173 -80q-94 0 -161.5 67t-67.5 162t67 162t162 67t162 -67t67 -162q0 -22 -4 -41h-322q9 -25 25 -42q32 -35 77 -35q42 0 74 32zM165 252h207
q-8 28 -27 49q-31 34 -76 34t-77 -34q-17 -20 -27 -49z" />
    <glyph glyph-name="Edotaccent" unicode="&#x116;" horiz-adv-x="597" 
d="M299 770q-32 0 -53 21t-21 53t21 53t53 21t53 -21t21 -53t-21 -53t-53 -21zM532 701v-140h-327v-129h270v-140h-270v-152h324v-140h-464v701h467z" />
    <glyph glyph-name="edotaccent" unicode="&#x117;" horiz-adv-x="528" 
d="M266 586q-32 0 -53 21t-21 53t21 53t53 21t53 -21t21 -53t-21 -53t-53 -21zM343 131l94 -63q-67 -80 -173 -80q-94 0 -161.5 67t-67.5 162t67 162t162 67t162 -67t67 -162q0 -22 -4 -41h-322q9 -25 25 -42q32 -35 77 -35q42 0 74 32zM165 252h207q-8 28 -27 49
q-31 34 -76 34t-77 -34q-17 -20 -27 -49z" />
    <glyph glyph-name="Eogonek" unicode="&#x118;" horiz-adv-x="597" 
d="M529 0h-2q-3 -5 -8 -14t-15.5 -34t-16.5 -46t-5 -44t13 -34q39 -36 126 -21v-105q0 1 -10.5 -1t-32 -5t-41.5 -3q-65 0 -110 42.5t-45 106.5q0 22 4.5 43t11 36t15.5 30t16 23t14 16.5t8 9.5h-386v701h467v-140h-327v-129h270v-140h-270v-152h324v-140z" />
    <glyph glyph-name="eogonek" unicode="&#x119;" horiz-adv-x="528" 
d="M406 -183v-105q0 1 -10.5 -1t-32 -5t-41.5 -3q-65 0 -110 42.5t-45 106.5q0 76 54 140q-80 16 -133 79t-53 146q0 95 67 162t162 67t162 -67t67 -162q0 -22 -4 -41h-322q9 -25 25 -42q32 -35 77 -35q42 0 74 32l94 -63q-52 -63 -135 -77q-59 -118 -22 -153
q39 -36 126 -21zM165 252h207q-8 28 -27 49q-31 34 -76 34t-77 -34q-17 -20 -27 -49z" />
    <glyph glyph-name="Ecaron" unicode="&#x11a;" horiz-adv-x="597" 
d="M496 854l-168 -98h-58l-168 98l85 82l112 -106l112 106zM532 701v-140h-327v-129h270v-140h-270v-152h324v-140h-464v701h467z" />
    <glyph glyph-name="ecaron" unicode="&#x11b;" horiz-adv-x="528" 
d="M463 670l-168 -98h-58l-168 98l85 82l112 -106l112 106zM343 131l94 -63q-67 -80 -173 -80q-94 0 -161.5 67t-67.5 162t67 162t162 67t162 -67t67 -162q0 -22 -4 -41h-322q9 -25 25 -42q32 -35 77 -35q42 0 74 32zM165 252h207q-8 28 -27 49q-31 34 -76 34t-77 -34
q-17 -20 -27 -49z" />
    <glyph glyph-name="Gcircumflex" unicode="&#x11c;" horiz-adv-x="850" 
d="M400 936h58l168 -98l-85 -82l-112 106l-112 -106l-85 82zM482 292v140h303v-432h-140v70q-103 -82 -221 -82q-151 2 -255.5 107.5t-103.5 256.5q1 149 107.5 254t255.5 105h3q125 -1 223 -80l-101 -99q-54 37 -123 39h-2q-92 0 -157 -65q-66 -64 -66 -156q-2 -92 63 -158
q65 -67 157 -67h3q90 0 156 64q45 43 60 103h-162z" />
    <glyph glyph-name="gcircumflex" unicode="&#x11d;" horiz-adv-x="538" 
d="M249 752h58l168 -98l-85 -82l-112 106l-112 -106l-85 82zM500 387l-73 -24q50 -53 50 -125q0 -81 -62.5 -138t-150.5 -57q-21 0 -46 5q-15 -28 -25 -52q38 5 76 5q118 0 181 -39q68 -43 68 -121q0 -79 -65 -121q-61 -39 -184 -39t-184 39q-65 42 -65 121q0 30 12 57
q24 82 99 188q-78 60 -78 152q0 81 62 138t149 57q10 0 30 -2l206 39v-83zM264 321q-38 0 -64 -25t-26 -58q0 -36 27.5 -59.5t62.5 -23.5q38 0 64.5 25t26.5 58q0 35 -26.5 59t-64.5 24zM269 -205q126 0 126 46q0 22 -34 34t-92 12t-92 -12.5t-34 -33.5q0 -46 126 -46z" />
    <glyph glyph-name="Gbreve" unicode="&#x11e;" horiz-adv-x="850" 
d="M490 886h74q0 -55 -39.5 -93.5t-95.5 -38.5q-55 0 -95 38.5t-40 93.5h75q0 -59 59 -59q62 0 62 59zM482 292v140h303v-432h-140v70q-103 -82 -221 -82q-151 2 -255.5 107.5t-103.5 256.5q1 149 107.5 254t255.5 105h3q125 -1 223 -80l-101 -99q-54 37 -123 39h-2
q-92 0 -157 -65q-66 -64 -66 -156q-2 -92 63 -158q65 -67 157 -67h3q90 0 156 64q45 43 60 103h-162z" />
    <glyph glyph-name="gbreve" unicode="&#x11f;" horiz-adv-x="538" 
d="M339 702h74q0 -55 -39.5 -93.5t-95.5 -38.5q-55 0 -95 38.5t-40 93.5h75q0 -59 59 -59q62 0 62 59zM500 387l-73 -24q50 -53 50 -125q0 -81 -62.5 -138t-150.5 -57q-21 0 -46 5q-15 -28 -25 -52q38 5 76 5q118 0 181 -39q68 -43 68 -121q0 -79 -65 -121q-61 -39 -184 -39
t-184 39q-65 42 -65 121q0 30 12 57q24 82 99 188q-78 60 -78 152q0 81 62 138t149 57q10 0 30 -2l206 39v-83zM264 321q-38 0 -64 -25t-26 -58q0 -36 27.5 -59.5t62.5 -23.5q38 0 64.5 25t26.5 58q0 35 -26.5 59t-64.5 24zM269 -205q126 0 126 46q0 22 -34 34t-92 12
t-92 -12.5t-34 -33.5q0 -46 126 -46z" />
    <glyph glyph-name="Gdotaccent" unicode="&#x120;" horiz-adv-x="850" 
d="M429 770q-32 0 -53 21t-21 53t21 53t53 21t53 -21t21 -53t-21 -53t-53 -21zM482 292v140h303v-432h-140v70q-103 -82 -221 -82q-151 2 -255.5 107.5t-103.5 256.5q1 149 107.5 254t255.5 105h3q125 -1 223 -80l-101 -99q-54 37 -123 39h-2q-92 0 -157 -65
q-66 -64 -66 -156q-2 -92 63 -158q65 -67 157 -67h3q90 0 156 64q45 43 60 103h-162z" />
    <glyph glyph-name="gdotaccent" unicode="&#x121;" horiz-adv-x="538" 
d="M278 586q-32 0 -53 21t-21 53t21 53t53 21t53 -21t21 -53t-21 -53t-53 -21zM500 387l-73 -24q50 -53 50 -125q0 -81 -62.5 -138t-150.5 -57q-21 0 -46 5q-15 -28 -25 -52q38 5 76 5q118 0 181 -39q68 -43 68 -121q0 -79 -65 -121q-61 -39 -184 -39t-184 39
q-65 42 -65 121q0 30 12 57q24 82 99 188q-78 60 -78 152q0 81 62 138t149 57q10 0 30 -2l206 39v-83zM264 321q-38 0 -64 -25t-26 -58q0 -36 27.5 -59.5t62.5 -23.5q38 0 64.5 25t26.5 58q0 35 -26.5 59t-64.5 24zM269 -205q126 0 126 46q0 22 -34 34t-92 12t-92 -12.5
t-34 -33.5q0 -46 126 -46z" />
    <glyph glyph-name="Gcommaaccent" unicode="&#x122;" horiz-adv-x="850" 
d="M482 292v140h303v-432h-140v70q-103 -82 -221 -82q-151 2 -255.5 107.5t-103.5 256.5q1 149 107.5 254t255.5 105h3q125 -1 223 -80l-101 -99q-54 37 -123 39h-2q-92 0 -157 -65q-66 -64 -66 -156q-2 -92 63 -158q65 -67 157 -67h3q90 0 156 64q45 43 60 103h-162z
M323 -391h73l104 273l-142 -2z" />
    <glyph glyph-name="gcommaaccent" unicode="&#x123;" horiz-adv-x="520" 
d="M308 711h-73l-62 -209h141zM500 387l-73 -24q50 -53 50 -125q0 -81 -62.5 -138t-150.5 -57q-21 0 -46 5q-15 -28 -25 -52q38 5 76 5q118 0 181 -39q68 -43 68 -121q0 -79 -65 -121q-61 -39 -184 -39t-184 39q-65 42 -65 121q0 30 12 57q24 82 99 188q-78 60 -78 152
q0 81 62 138t149 57q10 0 30 -2l206 39v-83zM264 321q-38 0 -64 -25t-26 -58q0 -36 27.5 -59.5t62.5 -23.5q38 0 64.5 25t26.5 58q0 35 -26.5 59t-64.5 24zM269 -205q126 0 126 46q0 22 -34 34t-92 12t-92 -12.5t-34 -33.5q0 -46 126 -46z" />
    <glyph glyph-name="Hcircumflex" unicode="&#x124;" horiz-adv-x="669" 
d="M305 936h58l168 -98l-85 -82l-112 106l-112 -106l-85 82zM464 432v268h140v-700h-140v292h-259v-292h-140v700h140v-268h259z" />
    <glyph glyph-name="hcircumflex" unicode="&#x125;" horiz-adv-x="565" 
d="M79 936h58l168 -98l-85 -82l-112 106l-112 -106l-85 82zM173 744v-340q59 40 129 40q94 0 161 -67t67 -162v-215h-132v215q0 47 -33 83q-32 34 -79 34q-48 0 -80 -34q-33 -36 -33 -83v-215h-133v744h133z" />
    <glyph glyph-name="Hbar" unicode="&#x126;" horiz-adv-x="764" 
d="M709 594v-68h-57v-526h-140v292h-259v-292h-140v526h-58v68h58v106h140v-106h259v106h140v-106h57zM512 432v94h-259v-94h259z" />
    <glyph glyph-name="hbar" unicode="&#x127;" 
d="M203 526v-122q59 40 129 40q94 0 161 -67t67 -162v-215h-132v215q0 47 -33 83q-32 34 -79 34q-48 0 -80 -34q-33 -36 -33 -83v-215h-133v526h-45v68h45v150h133v-150h136v-68h-136z" />
    <glyph glyph-name="Itilde" unicode="&#x128;" horiz-adv-x="419" 
d="M0 805l66 -42q38 46 83 46q41 0 74 -20q55 -32 97 -32q40 0 74.5 24.5t49.5 48.5l15 24l-59 49q-43 -47 -80 -47q-14 0 -41 17q-66 39 -128 39q-87 0 -151 -107zM354 561h-74v-421h74v-140h-289v140h75v421h-75v140h289v-140z" />
    <glyph glyph-name="itilde" unicode="&#x129;" horiz-adv-x="209" 
d="M-104 622l66 -42q38 46 83 46q41 0 74 -20q55 -32 97 -32q25 0 48.5 10t39 24t28 28.5t18.5 24.5l5 10l-59 49q-43 -47 -80 -47q-14 0 -41 17q-66 39 -128 39q-87 0 -151 -107zM40 0h129v431h-129v-431z" />
    <glyph glyph-name="Imacron" unicode="&#x12a;" horiz-adv-x="419" 
d="M30 775h357v111h-357v-111zM354 561h-74v-421h74v-140h-289v140h75v421h-75v140h289v-140z" />
    <glyph glyph-name="imacron" unicode="&#x12b;" horiz-adv-x="209" 
d="M-74 592h357v111h-357v-111zM40 0h129v431h-129v-431z" />
    <glyph glyph-name="Ibreve" unicode="&#x12c;" horiz-adv-x="419" 
d="M270 885h74q0 -55 -39.5 -93.5t-95.5 -38.5q-55 0 -95 38.5t-40 93.5h75q0 -59 59 -59q62 0 62 59zM354 561h-74v-421h74v-140h-289v140h75v421h-75v140h289v-140z" />
    <glyph glyph-name="ibreve" unicode="&#x12d;" horiz-adv-x="209" 
d="M166 702h74q0 -55 -39.5 -93.5t-95.5 -38.5q-55 0 -95 38.5t-40 93.5h75q0 -59 59 -59q62 0 62 59zM40 0h129v431h-129v-431z" />
    <glyph glyph-name="Iogonek" unicode="&#x12e;" horiz-adv-x="419" 
d="M354 0h-62q-3 -5 -8 -14t-15.5 -34t-16.5 -46t-5 -44t13 -34q39 -36 126 -21v-105q0 1 -10.5 -1t-32 -5t-41.5 -3q-65 0 -110 42.5t-45 106.5q0 22 4.5 43t11 36t15.5 30t16 23t14 16.5t8 9.5h-151v140h75v421h-75v140h289v-140h-74v-421h74v-140z" />
    <glyph glyph-name="iogonek" unicode="&#x12f;" horiz-adv-x="209" 
d="M105 586q-32 0 -53 21t-21 53t21 53t53 21t53 -21t21 -53t-21 -53t-53 -21zM169 431v-431q-3 -5 -8 -14t-15.5 -34t-16.5 -46t-5 -44t13 -34q39 -36 126 -21v-105q0 1 -10.5 -1t-32 -5t-41.5 -3q-65 0 -110 42.5t-45 106.5q0 22 4.5 43t11 36t15.5 30t16 23t14 16.5
t8 9.5h-53v431h129z" />
    <glyph glyph-name="Idotaccent" unicode="&#x130;" horiz-adv-x="419" 
d="M209 769q-32 0 -53 21t-21 53t21 53t53 21t53 -21t21 -53t-21 -53t-53 -21zM354 561h-74v-421h74v-140h-289v140h75v421h-75v140h289v-140z" />
    <glyph glyph-name="dotlessi" unicode="&#x131;" horiz-adv-x="209" 
d="M40 0h129v431h-129v-431z" />
    <glyph glyph-name="IJ" unicode="&#x132;" horiz-adv-x="964" 
d="M65 561v140h289v-140h-74v-421h74v-140h-289v140h75v421h-75zM631 701h283v-470h-1v-1q0 -95 -67 -162.5t-162 -67.5t-162.5 67.5t-67.5 162.5v1h140v-1q0 -37 26 -63q27 -27 64 -27q36 0 63 27q26 26 26 63v1h3v343h-148z" />
    <glyph glyph-name="ij" unicode="&#x133;" horiz-adv-x="412" 
d="M40 561h129v140h-129v-140zM236 559h130v140h-130v-140zM40 0h129v431h-129v-431zM154 -313h46q72 0 119.5 55t47.5 140v549h-130v-549q0 -73 -49 -73h-34v-122z" />
    <glyph glyph-name="Jcircumflex" unicode="&#x134;" horiz-adv-x="545" 
d="M377 936h58l168 -98l-85 -82l-112 106l-112 -106l-85 82zM212 701h283v-470h-1v-1q0 -95 -67 -162.5t-162 -67.5t-162.5 67.5t-67.5 162.5v1h140v-1q0 -37 26 -63q27 -27 64 -27q36 0 63 27q26 26 26 63v1h3v343h-148z" />
    <glyph glyph-name="jcircumflex" unicode="&#x135;" horiz-adv-x="293" 
d="M155 666h58l168 -98l-85 -82l-112 106l-112 -106l-85 82zM40 -297h46q72 0 119.5 55t47.5 140v533h-130v-533q0 -73 -49 -73h-34v-122z" />
    <glyph glyph-name="Kcommaaccent" unicode="&#x136;" horiz-adv-x="670" 
d="M438 1l-179 320l-54 -55v-265h-140v700h140v-226l205 226h189l-245 -274l251 -426h-167zM194 -391h73l104 273l-142 -2z" />
    <glyph glyph-name="kcommaaccent" unicode="&#x137;" horiz-adv-x="547" 
d="M517 0h-164l-144 175l-29 -30v-145h-140v744h140v-452l128 139h171l-175 -180zM154 -391h73l104 273l-142 -2z" />
    <glyph glyph-name="Lacute" unicode="&#x139;" horiz-adv-x="531" 
d="M51 802l60 -43l217 101l-115 82zM205 701v-561h261v-139h-401v700h140z" />
    <glyph glyph-name="lacute" unicode="&#x13a;" horiz-adv-x="208" 
d="M6 810l60 -43l217 101l-115 82zM40 0h128v744h-128v-744z" />
    <glyph glyph-name="Lcommaaccent" unicode="&#x13b;" horiz-adv-x="531" 
d="M205 701v-561h261v-139h-401v700h140zM159 -391h73l104 273l-142 -2z" />
    <glyph glyph-name="lcommaaccent" unicode="&#x13c;" horiz-adv-x="208" 
d="M40 0h128v744h-128v-744zM2 -391h73l104 273l-142 -2z" />
    <glyph glyph-name="Lcaron" unicode="&#x13d;" horiz-adv-x="531" 
d="M205 701v-561h261v-139h-401v700h140z" />
    <glyph glyph-name="lcaron" unicode="&#x13e;" horiz-adv-x="388" 
d="M45 0h128v744h-128v-744zM218 502h73l62 209h-141z" />
    <glyph glyph-name="Ldot" unicode="&#x13f;" horiz-adv-x="521" 
d="M205 701v-561h261v-139h-401v700h140zM381 299q-25 0 -45.5 20.5t-20.5 45.5t20.5 45.5t45.5 20.5t45.5 -20.5t20.5 -45.5t-20.5 -45.5t-45.5 -20.5z" />
    <glyph glyph-name="ldot" unicode="&#x140;" horiz-adv-x="397" 
d="M40 0h128v744h-128v-744zM291 299q-25 0 -45.5 20.5t-20.5 45.5t20.5 45.5t45.5 20.5t45.5 -20.5t20.5 -45.5t-20.5 -45.5t-45.5 -20.5z" />
    <glyph glyph-name="Lslash" unicode="&#x141;" horiz-adv-x="643" 
d="M258 140h251v-139h-391v253l-41 -35l-42 41l83 70v371h140v-252l122 104l42 -42l-164 -139v-232z" />
    <glyph glyph-name="lslash" unicode="&#x142;" horiz-adv-x="437" 
d="M392 491l-119 -110v-381h-128v263l-48 -44l-42 41l90 83v401h128v-282l77 71z" />
    <glyph glyph-name="Nacute" unicode="&#x143;" horiz-adv-x="701" 
d="M253 802l60 -43l217 101l-115 82zM599 0h37v701h-140v-392l-387 392h-44v-701h140v409z" />
    <glyph glyph-name="nacute" unicode="&#x144;" horiz-adv-x="536" 
d="M169 616l60 -43l217 101l-115 82zM142 431l20 -38q57 50 123 50q87 0 149 -67t62 -162v-214h-122v214q0 47 -30 82t-74 35t-74 -35t-30 -82v-214h-126v431h102z" />
    <glyph glyph-name="Ncommaaccent" unicode="&#x145;" horiz-adv-x="701" 
d="M599 0h37v701h-140v-392l-387 392h-44v-701h140v409zM249 -391h73l104 273l-142 -2z" />
    <glyph glyph-name="ncommaaccent" unicode="&#x146;" horiz-adv-x="536" 
d="M142 431l20 -38q57 50 123 50q87 0 149 -67t62 -162v-214h-122v214q0 47 -30 82t-74 35t-74 -35t-30 -82v-214h-126v431h102zM166 -391h73l104 273l-142 -2z" />
    <glyph glyph-name="Ncaron" unicode="&#x147;" horiz-adv-x="701" 
d="M547 856l-168 -98h-58l-168 98l85 82l112 -106l112 106zM599 0h37v701h-140v-392l-387 392h-44v-701h140v409z" />
    <glyph glyph-name="ncaron" unicode="&#x148;" horiz-adv-x="536" 
d="M463 670l-168 -98h-58l-168 98l85 82l112 -106l112 106zM142 431l20 -38q57 50 123 50q87 0 149 -67t62 -162v-214h-122v214q0 47 -30 82t-74 35t-74 -35t-30 -82v-214h-126v431h102z" />
    <glyph glyph-name="Eng" unicode="&#x14a;" horiz-adv-x="660" 
d="M496 701h140v-763q0 -116 -51 -171q-54 -57 -141 -57q-48 0 -91 26l64 107q13 -8 27 -8q34 0 50 18q20 20 20 75v133l-309 348v-409h-140v701h44l387 -443v443z" />
    <glyph glyph-name="eng" unicode="&#x14b;" 
d="M152 443l10 -40q52 40 123 40q87 0 149 -67t62 -162v-246q0 -116 -51 -171q-54 -57 -141 -57q-48 0 -91 26l64 107q13 -8 27 -8q34 0 50 18q20 20 20 75v256q0 49 -31 83q-29 34 -73 34t-73 -34q-31 -34 -31 -83v-214h-126v443h112z" />
    <glyph glyph-name="Omacron" unicode="&#x14c;" horiz-adv-x="836" 
d="M239 778h357v111h-357v-111zM418 714q150 0 256.5 -106.5t106.5 -256.5t-106.5 -256.5t-256.5 -106.5t-256.5 106.5t-106.5 256.5t106.5 256.5t256.5 106.5zM418 570q-91 0 -155 -64t-64 -155t64 -155t155 -64t155 64t64 155t-64 155t-155 64z" />
    <glyph glyph-name="omacron" unicode="&#x14d;" horiz-adv-x="537" 
d="M87 590h357v111h-357v-111zM268 444q100 0 169.5 -66.5t69.5 -161.5t-69.5 -161.5t-169.5 -66.5q-99 0 -168.5 66.5t-69.5 161.5t69.5 161.5t168.5 66.5zM349 132q32 35 32 85q0 48 -32 82q-33 35 -80 35q-48 0 -78 -35q-34 -33 -34 -83t34 -84q31 -34 78 -34q46 0 80 34
z" />
    <glyph glyph-name="Obreve" unicode="&#x14e;" horiz-adv-x="836" 
d="M479 888h74q0 -55 -39.5 -93.5t-95.5 -38.5q-55 0 -95 38.5t-40 93.5h75q0 -59 59 -59q62 0 62 59zM418 714q150 0 256.5 -106.5t106.5 -256.5t-106.5 -256.5t-256.5 -106.5t-256.5 106.5t-106.5 256.5t106.5 256.5t256.5 106.5zM418 570q-91 0 -155 -64t-64 -155
t64 -155t155 -64t155 64t64 155t-64 155t-155 64z" />
    <glyph glyph-name="obreve" unicode="&#x14f;" horiz-adv-x="537" 
d="M327 700h74q0 -55 -39.5 -93.5t-95.5 -38.5q-55 0 -95 38.5t-40 93.5h75q0 -59 59 -59q62 0 62 59zM268 444q100 0 169.5 -66.5t69.5 -161.5t-69.5 -161.5t-169.5 -66.5q-99 0 -168.5 66.5t-69.5 161.5t69.5 161.5t168.5 66.5zM349 132q32 35 32 85q0 48 -32 82
q-33 35 -80 35q-48 0 -78 -35q-34 -33 -34 -83t34 -84q31 -34 78 -34q46 0 80 34z" />
    <glyph glyph-name="Ohungarumlaut" unicode="&#x150;" horiz-adv-x="836" 
d="M247 753h73l119 188h-141zM470 753h73l119 188h-141zM418 714q150 0 256.5 -106.5t106.5 -256.5t-106.5 -256.5t-256.5 -106.5t-256.5 106.5t-106.5 256.5t106.5 256.5t256.5 106.5zM418 570q-91 0 -155 -64t-64 -155t64 -155t155 -64t155 64t64 155t-64 155t-155 64z
" />
    <glyph glyph-name="ohungarumlaut" unicode="&#x151;" horiz-adv-x="537" 
d="M95 565h73l119 188h-141zM318 565h73l119 188h-141zM268 444q100 0 169.5 -66.5t69.5 -161.5t-69.5 -161.5t-169.5 -66.5q-99 0 -168.5 66.5t-69.5 161.5t69.5 161.5t168.5 66.5zM349 132q32 35 32 85q0 48 -32 82q-33 35 -80 35q-48 0 -78 -35q-34 -33 -34 -83t34 -84
q31 -34 78 -34q46 0 80 34z" />
    <glyph glyph-name="OE" unicode="&#x152;" horiz-adv-x="1037" 
d="M982 561h-327v-129h270v-140h-270v-152h324v-139h-464q-50 -13 -97 -13q-150 0 -256.5 106.5t-106.5 256.5t106.5 256.5t256.5 106.5q47 0 97 -13h467v-140zM515 150v402q-44 22 -97 22q-93 0 -158 -65t-65 -158t65 -158t158 -65q50 0 97 22z" />
    <glyph glyph-name="oe" unicode="&#x153;" horiz-adv-x="888" 
d="M698 129l94 -63q-67 -80 -173 -80t-175 82q-69 -82 -176 -82q-95 0 -161.5 67t-66.5 162t67 162t161 67q108 0 175 -82q71 82 176 82q95 0 162 -67t67 -162q0 -22 -4 -41h-322q9 -25 25 -42q32 -35 77 -35q42 0 74 32zM349 131q32 35 32 84t-32 83q-30 35 -76 35t-76 -35
q-32 -34 -32 -83t32 -84q31 -34 76 -34t76 34zM520 250h207q-8 28 -27 49q-31 34 -76 34t-77 -34q-17 -20 -27 -49z" />
    <glyph glyph-name="Racute" unicode="&#x154;" horiz-adv-x="585" 
d="M173 800l60 -43l217 101l-115 82zM545 0h-149l-131 281h-70v-280h-140v701h264q87 0 148.5 -62t61.5 -149q0 -63 -33.5 -114.5t-89.5 -76.5zM319 562h-124v-141h124q29 0 49.5 20.5t20.5 49.5t-20.5 50t-49.5 21z" />
    <glyph glyph-name="racute" unicode="&#x155;" horiz-adv-x="409" 
d="M110 616l60 -43l217 101l-115 82zM137 431l18 -49q46 60 146 60q39 0 73 -12l-49 -111q-54 23 -102 -2.5t-58 -78.5v-238h-125v431h97z" />
    <glyph glyph-name="Rcommaaccent" unicode="&#x156;" horiz-adv-x="585" 
d="M545 0h-149l-131 281h-70v-280h-140v701h264q87 0 148.5 -62t61.5 -149q0 -63 -33.5 -114.5t-89.5 -76.5zM319 562h-124v-141h124q29 0 49.5 20.5t20.5 49.5t-20.5 50t-49.5 21zM26 -391h73l104 273l-142 -2z" />
    <glyph glyph-name="rcommaaccent" unicode="&#x157;" horiz-adv-x="409" 
d="M137 431l18 -49q46 60 146 60q39 0 73 -12l-49 -111q-54 23 -102 -2.5t-58 -78.5v-238h-125v431h97zM-10 -391h74l104 273l-142 -2z" />
    <glyph glyph-name="Rcaron" unicode="&#x158;" horiz-adv-x="585" 
d="M498 854l-168 -98h-58l-168 98l85 82l112 -106l112 106zM545 0h-149l-131 281h-70v-280h-140v701h264q87 0 148.5 -62t61.5 -149q0 -63 -33.5 -114.5t-89.5 -76.5zM319 562h-124v-141h124q29 0 49.5 20.5t20.5 49.5t-20.5 50t-49.5 21z" />
    <glyph glyph-name="rcaron" unicode="&#x159;" horiz-adv-x="409" 
d="M404 670l-168 -98h-58l-168 98l85 82l112 -106l112 106zM137 431l18 -49q46 60 146 60q39 0 73 -12l-49 -111q-54 23 -102 -2.5t-58 -78.5v-238h-125v431h97z" />
    <glyph glyph-name="Sacute" unicode="&#x15a;" horiz-adv-x="597" 
d="M219 802l60 -43l217 101l-115 82zM293 296l-5 1q-67 17 -106 44q-85 56 -90 158q-5 84 51 143q35 36 81.5 52.5t81.5 16.5q47 0 90 -12t64 -23.5t56 -34.5l23 -15l-73 -119l-25 16q-29 18 -43 26t-38.5 15t-53.5 7q-10 0 -30 -7t-32 -19q-13 -13 -12 -40t21.5 -43.5
t68.5 -28.5q8 -2 20 -6q101 -35 155 -93q55 -61 55 -137q0 -77 -56 -139q-64 -72 -161 -72q-66 0 -123 17q-96 30 -167 106l102 96q74 -79 188 -79q38 0 57.5 25t19.5 46q0 58 -116 98z" />
    <glyph glyph-name="sacute" unicode="&#x15b;" horiz-adv-x="406" 
d="M106 530l60 -43l217 101l-115 82zM21 66l80 81q30 -34 68.5 -49t64.5 -7t26 35q0 15 -10.5 25.5t-21 15t-31.5 11.5q-73 23 -107.5 50.5t-34.5 84.5q0 58 45 94.5t108 36.5q53 0 89.5 -11.5t82.5 -39.5l-58 -91q-41 29 -74 39t-51.5 1.5t-21.5 -31.5q-1 -9 2.5 -16
t14 -12.5t19.5 -8.5t27.5 -9t28.5 -9q51 -15 84.5 -48t33.5 -85q0 -53 -47 -94t-112 -41q-127 0 -205 78z" />
    <glyph glyph-name="Scircumflex" unicode="&#x15c;" horiz-adv-x="597" 
d="M287 938h58l168 -98l-85 -82l-112 106l-112 -106l-85 82zM293 296l-5 1q-67 17 -106 44q-85 56 -90 158q-5 84 51 143q35 36 81.5 52.5t81.5 16.5q47 0 90 -12t64 -23.5t56 -34.5l23 -15l-73 -119l-25 16q-29 18 -43 26t-38.5 15t-53.5 7q-10 0 -30 -7t-32 -19
q-13 -13 -12 -40t21.5 -43.5t68.5 -28.5q8 -2 20 -6q101 -35 155 -93q55 -61 55 -137q0 -77 -56 -139q-64 -72 -161 -72q-66 0 -123 17q-96 30 -167 106l102 96q74 -79 188 -79q38 0 57.5 25t19.5 46q0 58 -116 98z" />
    <glyph glyph-name="scircumflex" unicode="&#x15d;" horiz-adv-x="406" 
d="M174 666h58l168 -98l-85 -82l-112 106l-112 -106l-85 82zM21 66l80 81q30 -34 68.5 -49t64.5 -7t26 35q0 15 -10.5 25.5t-21 15t-31.5 11.5q-73 23 -107.5 50.5t-34.5 84.5q0 58 45 94.5t108 36.5q53 0 89.5 -11.5t82.5 -39.5l-58 -91q-41 29 -74 39t-51.5 1.5
t-21.5 -31.5q-1 -9 2.5 -16t14 -12.5t19.5 -8.5t27.5 -9t28.5 -9q51 -15 84.5 -48t33.5 -85q0 -53 -47 -94t-112 -41q-127 0 -205 78z" />
    <glyph glyph-name="Scedilla" unicode="&#x15e;" horiz-adv-x="597" 
d="M466 507l-25 16q-29 18 -43 26t-38.5 15t-53.5 7q-10 0 -30 -7t-32 -19q-13 -13 -12 -40t21.5 -43.5t68.5 -28.5q8 -2 20 -6q101 -35 155 -93q55 -61 55 -137q0 -77 -56 -139q-58 -66 -147 -72v-41q98 -30 92 -127q-5 -56 -46.5 -81t-89.5 -16t-74 43l41 44
q6 -5 18.5 -10t27 -6.5t26.5 8.5t15 33q3 31 -22 49.5t-51 21.5l-27 3v85q-18 2 -47 11q-96 30 -167 106l102 96q74 -79 188 -79q38 0 57.5 25t19.5 46q0 58 -116 98l-3 1l-5 1q-67 17 -106 44q-85 56 -90 158q-5 84 51 143q35 36 81.5 52.5t81.5 16.5q47 0 90 -12t64 -23.5
t56 -34.5l23 -15z" />
    <glyph glyph-name="scedilla" unicode="&#x15f;" horiz-adv-x="406" 
d="M380 393l-58 -91q-41 29 -74 39t-51.5 1.5t-21.5 -31.5q-1 -9 2.5 -16t14 -12.5t19.5 -8.5t27.5 -9t28.5 -9q51 -15 84.5 -48t33.5 -85q0 -51 -45 -92t-108 -43v-43q98 -30 92 -127q-5 -56 -46.5 -81t-89.5 -16t-74 43l41 44q6 -5 18.5 -10t27 -6.5t26.5 8.5t15 33
q3 31 -22 49.5t-52 21.5l-26 3v91q-72 19 -121 68l80 81q30 -34 68.5 -49t64.5 -7t26 35q0 15 -10.5 25.5t-21 15t-31.5 11.5q-73 23 -107.5 50.5t-34.5 84.5q0 58 45 94.5t108 36.5q53 0 89.5 -11.5t82.5 -39.5z" />
    <glyph glyph-name="Scaron" unicode="&#x160;" horiz-adv-x="597" 
d="M513 856l-168 -98h-58l-168 98l85 82l112 -106l112 106zM293 296l-5 1q-67 17 -106 44q-85 56 -90 158q-5 84 51 143q35 36 81.5 52.5t81.5 16.5q47 0 90 -12t64 -23.5t56 -34.5l23 -15l-73 -119l-25 16q-29 18 -43 26t-38.5 15t-53.5 7q-10 0 -30 -7t-32 -19
q-13 -13 -12 -40t21.5 -43.5t68.5 -28.5q8 -2 20 -6q101 -35 155 -93q55 -61 55 -137q0 -77 -56 -139q-64 -72 -161 -72q-66 0 -123 17q-96 30 -167 106l102 96q74 -79 188 -79q38 0 57.5 25t19.5 46q0 58 -116 98z" />
    <glyph glyph-name="scaron" unicode="&#x161;" horiz-adv-x="406" 
d="M400 584l-168 -98h-58l-168 98l85 82l112 -106l112 106zM21 66l80 81q30 -34 68.5 -49t64.5 -7t26 35q0 15 -10.5 25.5t-21 15t-31.5 11.5q-73 23 -107.5 50.5t-34.5 84.5q0 58 45 94.5t108 36.5q53 0 89.5 -11.5t82.5 -39.5l-58 -91q-41 29 -74 39t-51.5 1.5
t-21.5 -31.5q-1 -9 2.5 -16t14 -12.5t19.5 -8.5t27.5 -9t28.5 -9q51 -15 84.5 -48t33.5 -85q0 -53 -47 -94t-112 -41q-127 0 -205 78z" />
    <glyph glyph-name="Tcedilla" unicode="&#x162;" horiz-adv-x="629" 
d="M385 0h-20v-55q98 -30 92 -127q-5 -56 -46.5 -81t-89.5 -16t-74 43l41 44q6 -5 18.5 -10t27 -6.5t26.5 8.5t15 33q3 31 -22 49.5t-51 21.5l-27 3v93h-30v561h-195v140h529v-140h-194v-561z" />
    <glyph glyph-name="tcedilla" unicode="&#x163;" horiz-adv-x="393" 
d="M255 0h-20v-55q98 -30 92 -127q-5 -56 -46.5 -81t-89.5 -16t-74 43l41 44q6 -5 18.5 -10t27 -6.5t26.5 8.5t15 33q3 31 -22 49.5t-51 21.5l-27 3v93h-17v314h-90v117h90v160h127v-160h100v-117h-100v-314z" />
    <glyph glyph-name="Tcaron" unicode="&#x164;" horiz-adv-x="629" 
d="M511 856l-168 -98h-58l-168 98l85 82l112 -106l112 106zM50 701h529v-140h-194v-561h-140v561h-195v140z" />
    <glyph glyph-name="tcaron" unicode="&#x165;" horiz-adv-x="393" 
d="M388 746l-168 -98h-58l-168 98l85 82l112 -106l112 106zM255 431h100v-117h-100v-314h-127v314h-90v117h90v160h127v-160z" />
    <glyph glyph-name="Tbar" unicode="&#x166;" horiz-adv-x="629" 
d="M135 778h357v111h-357v-111zM50 701h529v-140h-194v-561h-140v561h-195v140z" />
    <glyph glyph-name="tbar" unicode="&#x167;" horiz-adv-x="393" 
d="M12 668h357v111h-357v-111zM255 431h100v-117h-100v-314h-127v314h-90v117h90v160h127v-160z" />
    <glyph glyph-name="Utilde" unicode="&#x168;" horiz-adv-x="643" 
d="M113 808l66 -42q38 46 83 46q41 0 74 -20q55 -32 97 -32q25 0 48.5 10t39 24t28 28.5t17.5 24.5l6 10l-59 49q-43 -47 -80 -47q-14 0 -41 17q-66 39 -128 39q-87 0 -151 -107zM592 259h1q0 -112 -79.5 -191.5t-191.5 -79.5t-191.5 79t-80.5 191v443h140v-442
q0 -54 39 -93q38 -38 93 -38q54 0 92 38q37 37 39 92h-1v443h140v-442z" />
    <glyph glyph-name="utilde" unicode="&#x169;" horiz-adv-x="516" 
d="M49 620l66 -42q38 46 83 46q41 0 74 -20q55 -32 97 -32q25 0 48.5 10t39 24t28 28.5t17.5 24.5l6 10l-59 49q-43 -47 -80 -47q-14 0 -41 17q-66 39 -128 39q-87 0 -151 -107zM484 431v-214q0 -94 -68.5 -161.5t-157.5 -67.5t-157.5 67.5t-68.5 161.5v214h128v-211
q0 -44 27 -78q31 -33 71 -33t70 33q28 33 28 78v211h128z" />
    <glyph glyph-name="Umacron" unicode="&#x16a;" horiz-adv-x="643" 
d="M143 778h357v111h-357v-111zM592 259h1q0 -112 -79.5 -191.5t-191.5 -79.5t-191.5 79t-80.5 191v443h140v-442q0 -54 39 -93q38 -38 93 -38q54 0 92 38q37 37 39 92h-1v443h140v-442z" />
    <glyph glyph-name="umacron" unicode="&#x16b;" horiz-adv-x="516" 
d="M79 590h357v111h-357v-111zM484 431v-214q0 -94 -68.5 -161.5t-157.5 -67.5t-157.5 67.5t-68.5 161.5v214h128v-211q0 -44 27 -78q31 -33 71 -33t70 33q28 33 28 78v211h128z" />
    <glyph glyph-name="Ubreve" unicode="&#x16c;" horiz-adv-x="643" 
d="M383 888h74q0 -55 -39.5 -93.5t-95.5 -38.5q-55 0 -95 38.5t-40 93.5h75q0 -59 59 -59q62 0 62 59zM592 259h1q0 -112 -79.5 -191.5t-191.5 -79.5t-191.5 79t-80.5 191v443h140v-442q0 -54 39 -93q38 -38 93 -38q54 0 92 38q37 37 39 92h-1v443h140v-442z" />
    <glyph glyph-name="ubreve" unicode="&#x16d;" horiz-adv-x="516" 
d="M319 700h74q0 -55 -39.5 -93.5t-95.5 -38.5q-55 0 -95 38.5t-40 93.5h75q0 -59 59 -59q62 0 62 59zM484 431v-214q0 -94 -68.5 -161.5t-157.5 -67.5t-157.5 67.5t-68.5 161.5v214h128v-211q0 -44 27 -78q31 -33 71 -33t70 33q28 33 28 78v211h128z" />
    <glyph glyph-name="Uring" unicode="&#x16e;" horiz-adv-x="643" 
d="M322 746q-40 0 -67.5 27t-27.5 68t27.5 68t67.5 27t67.5 -27.5t27.5 -67.5t-27.5 -67.5t-67.5 -27.5zM323 797q18 0 30 12.5t12 31.5q0 20 -11.5 31t-30.5 11q-44 0 -44 -42q0 -19 12.5 -31.5t31.5 -12.5zM592 259h1q0 -112 -79.5 -191.5t-191.5 -79.5t-191.5 79
t-80.5 191v443h140v-442q0 -54 39 -93q38 -38 93 -38q54 0 92 38q37 37 39 92h-1v443h140v-442z" />
    <glyph glyph-name="uring" unicode="&#x16f;" horiz-adv-x="516" 
d="M258 558q-40 0 -67.5 27t-27.5 68t27.5 68t67.5 27t67.5 -27.5t27.5 -67.5t-27.5 -67.5t-67.5 -27.5zM259 609q18 0 30 12.5t12 31.5q0 20 -11.5 31t-30.5 11q-44 0 -44 -42q0 -19 12.5 -31.5t31.5 -12.5zM484 431v-214q0 -94 -68.5 -161.5t-157.5 -67.5t-157.5 67.5
t-68.5 161.5v214h128v-211q0 -44 27 -78q31 -33 71 -33t70 33q28 33 28 78v211h128z" />
    <glyph glyph-name="Uhungarumlaut" unicode="&#x170;" horiz-adv-x="643" 
d="M151 753h73l119 188h-141zM374 753h73l119 188h-141zM592 259h1q0 -112 -79.5 -191.5t-191.5 -79.5t-191.5 79t-80.5 191v443h140v-442q0 -54 39 -93q38 -38 93 -38q54 0 92 38q37 37 39 92h-1v443h140v-442z" />
    <glyph glyph-name="uhungarumlaut" unicode="&#x171;" horiz-adv-x="516" 
d="M87 565h73l119 188h-141zM310 565h73l119 188h-141zM484 431v-214q0 -94 -68.5 -161.5t-157.5 -67.5t-157.5 67.5t-68.5 161.5v214h128v-211q0 -44 27 -78q31 -33 71 -33t70 33q28 33 28 78v211h128z" />
    <glyph glyph-name="Uogonek" unicode="&#x172;" horiz-adv-x="643" 
d="M592 701l1 -442q0 -104 -70 -181.5t-173 -88.5q-64 -125 -26 -161q39 -36 126 -21v-105q0 1 -10.5 -1t-32 -5t-41.5 -3q-65 0 -110 42.5t-45 106.5q0 81 62 150q-95 17 -158.5 92t-64.5 174v443h140v-442q0 -54 39 -93q38 -38 93 -38q54 0 92 38q37 37 39 92h-1v443h140z
" />
    <glyph glyph-name="uogonek" unicode="&#x173;" horiz-adv-x="516" 
d="M484 431v-214q0 -56 -27 -105t-72 -82q-121 -155 -65 -192q40 -37 163 -6v-115l-13 -5q-13 -6 -43.5 -12.5t-64.5 -6.5q-65 0 -110 42.5t-45 106.5q0 78 59 146h-8q-89 0 -157.5 67.5t-68.5 161.5v214h128v-211q0 -44 27 -78q31 -33 71 -33t70 33q28 33 28 78v211h128z
" />
    <glyph glyph-name="Wcircumflex" unicode="&#x174;" horiz-adv-x="1074" 
d="M481 936h58l168 -98l-85 -82l-112 106l-112 -106l-85 82zM854 701h155l-321 -701h-34l-117 257l-118 -257h-34l-320 701h155l187 -394l62 118l-135 276h155l182 -388z" />
    <glyph glyph-name="wcircumflex" unicode="&#x175;" horiz-adv-x="746" 
d="M342 752h58l168 -98l-85 -82l-112 106l-112 -106l-85 82zM592 431h124l-224 -431h-17l-102 194l-101 -194h-16l-226 431h124l110 -209l47 90l-62 119h124l110 -209z" />
    <glyph glyph-name="Ycircumflex" unicode="&#x176;" horiz-adv-x="687" 
d="M315 938h58l168 -98l-85 -82l-112 106l-112 -106l-85 82zM487 701h155l-228 -444v-257h-140v257l-229 444h155l144 -264z" />
    <glyph glyph-name="ycircumflex" unicode="&#x177;" horiz-adv-x="616" 
d="M296 752h58l168 -98l-85 -82l-112 106l-112 -106l-85 82zM56 -313l179 340l-210 404h144l142 -239l132 239h140l-387 -744h-140z" />
    <glyph glyph-name="Ydieresis" unicode="&#x178;" horiz-adv-x="687" 
d="M174 758h131v131h-131v-131zM401 758h131v131h-131v-131zM487 701h155l-228 -444v-257h-140v257l-229 444h155l144 -264z" />
    <glyph glyph-name="Zacute" unicode="&#x179;" horiz-adv-x="737" 
d="M292 802l60 -43l217 101l-115 82zM55 0h615v130h-366l388 530v41h-574v-131h324l-387 -530v-40z" />
    <glyph glyph-name="zacute" unicode="&#x17a;" horiz-adv-x="521" 
d="M154 616l60 -43l217 101l-115 82zM55 0h397v110h-201l216 295v26h-406v-109h208l-214 -293v-29z" />
    <glyph glyph-name="Zdotaccent" unicode="&#x17b;" horiz-adv-x="737" 
d="M389 772q-32 0 -53 21t-21 53t21 53t53 21t53 -21t21 -53t-21 -53t-53 -21zM55 0h615v130h-366l388 530v41h-574v-131h324l-387 -530v-40z" />
    <glyph glyph-name="zdotaccent" unicode="&#x17c;" horiz-adv-x="521" 
d="M251 586q-32 0 -53 21t-21 53t21 53t53 21t53 -21t21 -53t-21 -53t-53 -21zM55 0h397v110h-201l216 295v26h-406v-109h208l-214 -293v-29z" />
    <glyph glyph-name="Zcaron" unicode="&#x17d;" horiz-adv-x="737" 
d="M586 856l-168 -98h-58l-168 98l85 82l112 -106l112 106zM55 0h615v130h-366l388 530v41h-574v-131h324l-387 -530v-40z" />
    <glyph glyph-name="zcaron" unicode="&#x17e;" horiz-adv-x="521" 
d="M448 670l-168 -98h-58l-168 98l85 82l112 -106l112 106zM55 0h397v110h-201l216 295v26h-406v-109h208l-214 -293v-29z" />
    <glyph glyph-name="florin" unicode="&#x192;" horiz-adv-x="636" 
d="M591 765l-91 -79q-19 24 -47 24q-24 0 -40.5 -14t-23.5 -36t-9 -38t-2 -31v-79h129v-119h-129v-393q0 -107 -53 -172q-55 -67 -142 -67q-81 0 -138 65l91 79q19 -24 47 -24q24 0 40.5 14t23.5 36t9 38t2 31v393h-82v119h82v79q0 107 53 172q55 67 142 67q81 0 138 -65z
" />
    <glyph glyph-name="Acaron" unicode="&#x1cd;" horiz-adv-x="799" 
d="M611 856l-168 -98h-58l-168 98l85 82l112 -106l112 106zM609 0l-61 130h-290l-66 -130h-157l357 701h41l331 -701h-155zM330 270h152l-73 156z" />
    <glyph glyph-name="acaron" unicode="&#x1ce;" horiz-adv-x="553" 
d="M498 670l-168 -98h-58l-168 98l85 82l112 -106l112 106zM417 431h96v-431h-106v42q-64 -54 -148 -54q-95 0 -162 66.5t-67 161.5t67 161.5t162 66.5q84 0 148 -54zM354 133q33 35 33 83q0 50 -33 83q-32 34 -79 34q-46 0 -80 -34q-33 -35 -33 -83q0 -47 33 -83
q34 -34 80 -34q47 0 79 34z" />
    <glyph glyph-name="Icaron" unicode="&#x1cf;" horiz-adv-x="419" 
d="M406 853l-168 -98h-58l-168 98l85 82l112 -106l112 106zM354 561h-74v-421h74v-140h-289v140h75v421h-75v140h289v-140z" />
    <glyph glyph-name="icaron" unicode="&#x1d0;" horiz-adv-x="209" 
d="M302 670l-168 -98h-58l-168 98l85 82l112 -106l112 106zM40 0h129v431h-129v-431z" />
    <glyph glyph-name="Ocaron" unicode="&#x1d1;" horiz-adv-x="836" 
d="M615 856l-168 -98h-58l-168 98l85 82l112 -106l112 106zM418 714q150 0 256.5 -106.5t106.5 -256.5t-106.5 -256.5t-256.5 -106.5t-256.5 106.5t-106.5 256.5t106.5 256.5t256.5 106.5zM418 570q-91 0 -155 -64t-64 -155t64 -155t155 -64t155 64t64 155t-64 155t-155 64z
" />
    <glyph glyph-name="ocaron" unicode="&#x1d2;" horiz-adv-x="537" 
d="M463 668l-168 -98h-58l-168 98l85 82l112 -106l112 106zM268 444q100 0 169.5 -66.5t69.5 -161.5t-69.5 -161.5t-169.5 -66.5q-99 0 -168.5 66.5t-69.5 161.5t69.5 161.5t168.5 66.5zM349 132q32 35 32 85q0 48 -32 82q-33 35 -80 35q-48 0 -78 -35q-34 -33 -34 -83
t34 -84q31 -34 78 -34q46 0 80 34z" />
    <glyph glyph-name="Ucaron" unicode="&#x1d3;" horiz-adv-x="643" 
d="M519 856l-168 -98h-58l-168 98l85 82l112 -106l112 106zM592 259h1q0 -112 -79.5 -191.5t-191.5 -79.5t-191.5 79t-80.5 191v443h140v-442q0 -54 39 -93q38 -38 93 -38q54 0 92 38q37 37 39 92h-1v443h140v-442z" />
    <glyph glyph-name="ucaron" unicode="&#x1d4;" horiz-adv-x="516" 
d="M455 668l-168 -98h-58l-168 98l85 82l112 -106l112 106zM484 431v-214q0 -94 -68.5 -161.5t-157.5 -67.5t-157.5 67.5t-68.5 161.5v214h128v-211q0 -44 27 -78q31 -33 71 -33t70 33q28 33 28 78v211h128z" />
    <glyph glyph-name="Udieresismacron" unicode="&#x1d5;" horiz-adv-x="643" 
d="M133 931h357v111h-357v-111zM132 763h131v131h-131v-131zM359 763h131v131h-131v-131zM592 259h1q0 -112 -79.5 -191.5t-191.5 -79.5t-191.5 79t-80.5 191v443h140v-442q0 -54 39 -93q38 -38 93 -38q54 0 92 38q37 37 39 92h-1v443h140v-442z" />
    <glyph glyph-name="udieresismacron" unicode="&#x1d6;" horiz-adv-x="516" 
d="M89 730h357v111h-357v-111zM88 532h131v131h-131v-131zM315 532h131v131h-131v-131zM484 431v-214q0 -94 -68.5 -161.5t-157.5 -67.5t-157.5 67.5t-68.5 161.5v214h128v-211q0 -44 27 -78q31 -33 71 -33t70 33q28 33 28 78v211h128z" />
    <glyph glyph-name="AEacute" unicode="&#x1fc;" horiz-adv-x="950" 
d="M443 802l60 -43l217 101l-115 82zM905 561h-317v-129h260v-140h-260v-152h314v-139h-444v129h-189l-67 -131h-157l357 702h503v-140zM340 270h118v156h-39z" />
    <glyph glyph-name="aeacute" unicode="&#x1fd;" horiz-adv-x="908" 
d="M473 530l60 -43l217 101l-115 82zM523 431v-19q52 32 116 32q95 0 162 -67t67 -162q0 -22 -4 -41h-322q9 -25 25 -42q32 -35 77 -35q42 0 74 32l94 -63q-67 -80 -173 -80q-56 0 -104.5 25t-80.5 69q-31 -44 -80 -69.5t-105 -25.5q-95 0 -162 67t-67 162t67 162t162 67
q84 0 148 -54v42h106zM540 250h207q-8 28 -27 49q-31 34 -76 34t-77 -34q-17 -20 -27 -49zM364 131q33 35 33 83q0 50 -33 83q-32 34 -79 34q-46 0 -80 -34q-33 -35 -33 -83q0 -47 33 -83q34 -34 80 -34q47 0 79 34z" />
    <glyph glyph-name="Oslashacute" unicode="&#x1fe;" horiz-adv-x="836" 
d="M321 800l60 -43l217 101l-115 82zM777 660l-79 -79q83 -101 83 -232q0 -150 -106.5 -256.5t-256.5 -106.5q-129 0 -231 84l-79 -79l-48 48l79 79q-84 102 -84 231q0 150 106.5 256.5t256.5 106.5q131 0 232 -83l79 79zM238 217l313 312q-58 43 -133 43q-93 0 -158 -65
t-65 -158q0 -74 43 -132zM598 482l-312 -313q58 -43 132 -43q93 0 158 65t65 158q0 75 -43 133z" />
    <glyph glyph-name="oslashacute" unicode="&#x1ff;" horiz-adv-x="537" 
d="M172 530l60 -43l217 101l-115 82zM485 383l-31 -30q45 -61 45 -136q0 -95 -67 -162t-162 -67q-77 0 -136 45l-36 -36l-48 48l36 35q-44 60 -44 137q0 95 67 162t161 67q75 0 136 -45l36 35l48 -47zM176 170l150 150q-22 15 -51 15q-46 0 -76 -35q-32 -34 -32 -83
q0 -26 9 -47zM371 270l-153 -154q25 -17 57 -17q45 0 76 34q32 35 32 84q0 29 -12 53z" />
    <glyph glyph-name="Scommaaccent" unicode="&#x218;" horiz-adv-x="597" 
d="M293 296l-5 1q-67 17 -106 44q-85 56 -90 158q-5 84 51 143q35 36 81.5 52.5t81.5 16.5q47 0 90 -12t64 -23.5t56 -34.5l23 -15l-73 -119l-25 16q-29 18 -43 26t-38.5 15t-53.5 7q-10 0 -30 -7t-32 -19q-13 -13 -12 -40t21.5 -43.5t68.5 -28.5q8 -2 20 -6
q101 -35 155 -93q55 -61 55 -137q0 -77 -56 -139q-64 -72 -161 -72q-66 0 -123 17q-96 30 -167 106l102 96q74 -79 188 -79q38 0 57.5 25t19.5 46q0 58 -116 98zM197 -391h73l104 273l-142 -2z" />
    <glyph glyph-name="scommaaccent" unicode="&#x219;" horiz-adv-x="406" 
d="M21 66l80 81q30 -34 68.5 -49t64.5 -7t26 35q0 15 -10.5 25.5t-21 15t-31.5 11.5q-73 23 -107.5 50.5t-34.5 84.5q0 58 45 94.5t108 36.5q53 0 89.5 -11.5t82.5 -39.5l-58 -91q-41 29 -74 39t-51.5 1.5t-21.5 -31.5q-1 -9 2.5 -16t14 -12.5t19.5 -8.5t27.5 -9t28.5 -9
q51 -15 84.5 -48t33.5 -85q0 -53 -47 -94t-112 -41q-127 0 -205 78zM80 -391h73l104 273l-142 -2z" />
    <glyph glyph-name="uni021A" unicode="&#x21a;" horiz-adv-x="629" 
d="M50 701h529v-140h-194v-561h-140v561h-195v140zM213 -391h73l104 273l-142 -2z" />
    <glyph glyph-name="uni021B" unicode="&#x21b;" horiz-adv-x="393" 
d="M255 431h100v-117h-100v-314h-127v314h-90v117h90v160h127v-160zM83 -391h73l104 273l-142 -2z" />
    <glyph glyph-name="dotlessj" unicode="&#x237;" horiz-adv-x="293" 
d="M40 -297h46q72 0 119.5 55t47.5 140v533h-130v-533q0 -73 -49 -73h-34v-122z" />
    <glyph glyph-name="circumflex" unicode="&#x2c6;" 
d="M272 936h58l168 -98l-85 -82l-112 106l-112 -106l-85 82z" />
    <glyph glyph-name="caron" unicode="&#x2c7;" horiz-adv-x="602" 
d="M498 854l-168 -98h-58l-168 98l85 82l112 -106l112 106z" />
    <glyph glyph-name="breve" unicode="&#x2d8;" 
d="M361 886h74q0 -55 -39.5 -93.5t-95.5 -38.5q-55 0 -95 38.5t-40 93.5h75q0 -59 59 -59q62 0 62 59z" />
    <glyph glyph-name="dotaccent" unicode="&#x2d9;" 
d="M300 770q-32 0 -53 21t-21 53t21 53t53 21t53 -21t21 -53t-21 -53t-53 -21z" />
    <glyph glyph-name="ring" unicode="&#x2da;" 
d="M300 734q-40 0 -67.5 27t-27.5 68t27.5 68t67.5 27t67.5 -27.5t27.5 -67.5t-27.5 -67.5t-67.5 -27.5zM301 785q18 0 30 12.5t12 31.5q0 20 -11.5 31t-30.5 11q-44 0 -44 -42q0 -19 12.5 -31.5t31.5 -12.5z" />
    <glyph glyph-name="ogonek" unicode="&#x2db;" 
d="M228 0h76q-3 -5 -8 -14t-15.5 -34t-16.5 -46t-5 -44t13 -34q39 -36 126 -21v-105q0 1 -10.5 -1t-32 -5t-41.5 -3q-65 0 -110 42.5t-45 106.5q0 22 4.5 43t11 36t15.5 30t16 23t14 16.5t8 9.5z" />
    <glyph glyph-name="tilde" unicode="&#x2dc;" horiz-adv-x="588" 
d="M31 806l66 -42q38 46 83 46q41 0 74 -20q55 -32 97 -32q25 0 48.5 10t39 24t28 28.5t17.5 24.5l6 10l-59 49q-43 -47 -80 -47q-14 0 -41 17q-66 39 -128 39q-87 0 -151 -107z" />
    <glyph glyph-name="hungarumlaut" unicode="&#x2dd;" 
d="M133 751h73l119 188h-141zM356 751h73l119 188h-141z" />
    <glyph glyph-name="commaaccentcomb" unicode="&#x326;" horiz-adv-x="0" 
d="M26 -391h73l104 273l-142 -2z" />
    <glyph glyph-name="mu" unicode="&#x3bc;" 
d="M484 431v-214v-3v-214h-68l-13 45q-63 -57 -145 -57q-50 0 -98 24v-325h-128v744h128v-211q0 -44 27 -78q31 -33 71 -33t70 33q28 33 28 78v211h128z" />
    <glyph glyph-name="Wgrave" unicode="&#x1e80;" horiz-adv-x="1074" 
d="M343 858l217 -101l60 43l-162 140zM854 701h155l-321 -701h-34l-117 257l-118 -257h-34l-320 701h155l187 -394l62 118l-135 276h155l182 -388z" />
    <glyph glyph-name="wgrave" unicode="&#x1e81;" horiz-adv-x="746" 
d="M204 674l217 -101l60 43l-162 140zM592 431h124l-224 -431h-17l-102 194l-101 -194h-16l-226 431h124l110 -209l47 90l-62 119h124l110 -209z" />
    <glyph glyph-name="Wacute" unicode="&#x1e82;" horiz-adv-x="1074" 
d="M413 800l60 -43l217 101l-115 82zM854 701h155l-321 -701h-34l-117 257l-118 -257h-34l-320 701h155l187 -394l62 118l-135 276h155l182 -388z" />
    <glyph glyph-name="wacute" unicode="&#x1e83;" horiz-adv-x="746" 
d="M274 616l60 -43l217 101l-115 82zM592 431h124l-224 -431h-17l-102 194l-101 -194h-16l-226 431h124l110 -209l47 90l-62 119h124l110 -209z" />
    <glyph glyph-name="Wdieresis" unicode="&#x1e84;" horiz-adv-x="1074" 
d="M340 756h131v131h-131v-131zM567 756h131v131h-131v-131zM854 701h155l-321 -701h-34l-117 257l-118 -257h-34l-320 701h155l187 -394l62 118l-135 276h155l182 -388z" />
    <glyph glyph-name="wdieresis" unicode="&#x1e85;" horiz-adv-x="746" 
d="M201 572h131v131h-131v-131zM428 572h131v131h-131v-131zM592 431h124l-224 -431h-17l-102 194l-101 -194h-16l-226 431h124l110 -209l47 90l-62 119h124l110 -209z" />
    <glyph glyph-name="Ygrave" unicode="&#x1ef2;" horiz-adv-x="687" 
d="M177 860l217 -101l60 43l-162 140zM487 701h155l-228 -444v-257h-140v257l-229 444h155l144 -264z" />
    <glyph glyph-name="ygrave" unicode="&#x1ef3;" horiz-adv-x="616" 
d="M158 674l217 -101l60 43l-162 140zM56 -313l179 340l-210 404h144l142 -239l132 239h140l-387 -744h-140z" />
    <glyph glyph-name="endash" unicode="&#x2013;" horiz-adv-x="572" 
d="M30 291v-116h512v116h-512z" />
    <glyph glyph-name="emdash" unicode="&#x2014;" horiz-adv-x="642" 
d="M65 291v-116h512v116h-512z" />
    <glyph glyph-name="quoteleft" unicode="&#x2018;" horiz-adv-x="271" 
d="M200 711h-73l-62 -209h141z" />
    <glyph glyph-name="quoteright" unicode="&#x2019;" horiz-adv-x="176" 
d="M36 502h73l62 209h-141z" />
    <glyph glyph-name="quotedblleft" unicode="&#x201c;" horiz-adv-x="392" 
d="M165 711h-73l-62 -209h141zM356 711h-73l-62 -209h141z" />
    <glyph glyph-name="quotedblright" unicode="&#x201d;" horiz-adv-x="407" 
d="M21 502h73l62 209h-141zM227 502h73l62 209h-141z" />
    <glyph glyph-name="quotedblbase" unicode="&#x201e;" horiz-adv-x="407" 
d="M21 -71h73l62 209h-141zM227 -71h73l62 209h-141z" />
    <glyph glyph-name="ellipsis" unicode="&#x2026;" horiz-adv-x="554" 
d="M45 0h131v131h-131v-131zM227 0h131v131h-131v-131zM408 0h131v131h-131v-131z" />
    <glyph glyph-name="perthousand" unicode="&#x2030;" horiz-adv-x="823" 
d="M20 -26l68 -35l485 785l-70 35zM159 412q-40 -4 -70 20t-35 65q-4 40 20 69.5t65 34.5q39 5 69.5 -19.5t34.5 -64.5t-20 -70t-64 -35zM155 463q18 2 28.5 16t7.5 33q-5 43 -46 36q-20 -2 -30.5 -13.5t-8.5 -32.5q2 -19 16 -30t33 -9zM453 101q-40 -4 -70 20.5t-35 64.5
q-4 41 20.5 70.5t64.5 33.5q40 5 70 -19.5t34 -64.5t-20.5 -70t-63.5 -35zM703 101q-40 -4 -70 20.5t-35 64.5q-4 41 20.5 70.5t64.5 33.5q40 5 70 -19.5t34 -64.5t-20.5 -70t-63.5 -35zM448 152q18 2 29 16t9 32q-4 41 -46 38q-20 -2 -31 -14t-9 -32q2 -19 15.5 -30
t32.5 -10zM698 152q18 2 29 16t9 32q-4 41 -46 38q-20 -2 -31 -14t-9 -32q2 -19 15.5 -30t32.5 -10z" />
    <glyph glyph-name="fraction" unicode="&#x2044;" 
d="M35 -28l54 -24l471 837l-54 25z" />
    <glyph glyph-name="Euro" unicode="&#x20ac;" horiz-adv-x="689" 
d="M551 153l88 -111q-86 -54 -185 -54q-112 0 -202 65.5t-128 170.5h-74v80h55q-3 23 -3 47l1 23h-53v80h66q33 114 126 187t212 73q95 0 177 -49l-88 -112q-42 21 -89 21q-87 0 -148 -64q-27 -29 -40 -56h184v-80h-207q-1 -8 -1 -23q0 -22 5 -47h203v-80h-170
q16 -22 26 -32q61 -64 148 -64q50 0 97 25z" />
    <glyph glyph-name="uni2153" unicode="&#x2153;" horiz-adv-x="661" 
d="M162 569h49v-77h-181v77h55v230h-55v77h132v-307zM35 -28l54 -24l471 837l-54 25zM463 250h-63q2 26 9 42q9 21 25 37q19 18 36 24q25 10 45 10q22 0 45 -10q17 -6 37 -24q16 -16 25 -37t9 -45q0 -23 -9 -45q-11 -23 -25 -36l-3 -3l3 -2q16 -16 25 -36q9 -23 9 -45
q0 -24 -9 -45t-25 -37t-37 -25t-45 -9q-23 0 -45 9q-20 9 -36 25t-25 37q-7 16 -9 41h63q2 -20 16.5 -34.5t35.5 -14.5q22 0 37.5 15.5t15.5 37.5q0 21 -14.5 36.5t-35.5 15.5h-42v63h45q17 0 32 16t15 36q0 22 -15.5 37.5t-37.5 15.5q-21 0 -35.5 -14.5t-16.5 -35.5z" />
    <glyph glyph-name="uni2154" unicode="&#x2154;" horiz-adv-x="697" 
d="M30 491l127 176q-14 4 -20 7q-18 7 -34 23q-13 12 -24 34q-9 25 -9 43q0 19 9 42q9 22 24 35q15 15 34 24q22 8 43 8t42 -8q21 -10 34 -24q17 -15 24 -35q9 -20 9 -42t-9 -43q-2 -5 -34 -49.5t-62 -85.5l-31 -42h146v-63h-269zM136 778q0 -16 12 -28t28 -12t27.5 11.5
t11.5 28.5q0 16 -11.5 27.5t-27.5 11.5t-28 -11.5t-12 -27.5zM75 -28l54 -24l471 837l-54 25zM499 248h-63q2 26 9 42q9 21 25 37q19 18 36 24q25 10 45 10q22 0 45 -10q17 -6 37 -24q16 -16 25 -37t9 -45q0 -23 -9 -45q-11 -23 -25 -36l-3 -3l3 -2q16 -16 25 -36
q9 -23 9 -45q0 -24 -9 -45t-25 -37t-37 -25t-45 -9q-23 0 -45 9q-20 9 -36 25t-25 37q-7 16 -9 41h63q2 -20 16.5 -34.5t35.5 -14.5q22 0 37.5 15.5t15.5 37.5q0 21 -14.5 36.5t-35.5 15.5h-42v63h45q17 0 32 16t15 36q0 22 -15.5 37.5t-37.5 15.5q-21 0 -35.5 -14.5
t-16.5 -35.5z" />
    <glyph glyph-name="minus" unicode="&#x2212;" horiz-adv-x="472" 
d="M65 291v-116h342v116h-342z" />
    <glyph glyph-name="approxequal" unicode="&#x2248;" horiz-adv-x="528" 
d="M55 386v-106q53 51 107 51q43 0 100 -25t93 -25q32 0 65 14.5t53 34.5v110q-53 -53 -108 -53q-19 0 -89.5 25t-104.5 25q-67 0 -116 -51zM55 196v-106q53 51 107 51q43 0 100 -25t93 -25q32 0 65 14.5t53 34.5v110q-53 -53 -108 -53q-19 0 -89.5 25t-104.5 25
q-67 0 -116 -51z" />
    <glyph glyph-name="notequal" unicode="&#x2260;" horiz-adv-x="472" 
d="M467 304h-176l-52 -91h228v-116h-294l-84 -149l-54 24l71 125h-61v116h126l52 91h-178v116h243l92 162l54 -25l-78 -137h111v-116z" />
    <glyph glyph-name="lessequal" unicode="&#x2264;" horiz-adv-x="552" 
d="M55 420l386 -190l51 103l-280 138l281 136l-50 104l-388 -188v-103zM65 181v-116h432v116h-432z" />
    <glyph glyph-name="greaterequal" unicode="&#x2265;" horiz-adv-x="552" 
d="M60 333l51 -103l385 190v103l-387 188l-50 -104l281 -136zM55 65h432v116h-432v-116z" />
    <glyph glyph-name="two.dnom" horiz-adv-x="604" 
d="M30 491l127 176q-14 4 -20 7q-18 7 -34 23q-13 12 -24 34q-9 25 -9 43q0 19 9 42q9 22 24 35q15 15 34 24q22 8 43 8t42 -8q21 -10 34 -24q17 -15 24 -35q9 -20 9 -42t-9 -43q-2 -5 -34 -49.5t-62 -85.5l-31 -42h146v-63h-269zM136 778q0 -16 12 -28t28 -12t27.5 11.5
t11.5 28.5q0 16 -11.5 27.5t-27.5 11.5t-28 -11.5t-12 -27.5z" />
    <glyph glyph-name="three.dnom" horiz-adv-x="530" 
d="M93 771h-63q2 26 9 42q9 21 25 37q19 18 36 24q25 10 45 10q22 0 45 -10q17 -6 37 -24q16 -16 25 -37t9 -45q0 -22 -9 -45q-11 -23 -25 -36l-3 -3l3 -2q16 -16 25 -36q9 -22 9 -45q0 -24 -9 -45t-25 -37t-37 -25t-45 -9q-23 0 -45 9q-20 9 -36 25t-25 37q-7 16 -9 41h63
q2 -20 16.5 -34.5t35.5 -14.5q22 0 37.5 15.5t15.5 37.5q0 21 -14.5 36.5t-35.5 15.5h-42v63h45q17 0 32 16t15 36q0 22 -15.5 37.5t-37.5 15.5q-21 0 -35.5 -14.5t-16.5 -35.5z" />
    <glyph glyph-name="one.numr" horiz-adv-x="241" 
d="M162 569h49v-77h-181v77h55v230h-55v77h132v-307z" />
    <glyph glyph-name="two.numr" horiz-adv-x="329" 
d="M30 491l127 176q-14 4 -20 7q-18 7 -34 23q-13 12 -24 34q-9 25 -9 43q0 19 9 42q9 22 24 35q15 15 34 24q22 8 43 8t42 -8q21 -10 34 -24q17 -15 24 -35q9 -20 9 -42t-9 -43q-2 -5 -34 -49.5t-62 -85.5l-31 -42h146v-63h-269zM136 778q0 -16 12 -28t28 -12t27.5 11.5
t11.5 28.5q0 16 -11.5 27.5t-27.5 11.5t-28 -11.5t-12 -27.5z" />
    <glyph glyph-name="newGlyph" 
 />
    </font>
</defs>
</svg>
